Witamy Guest (Zaloguj) Zarejestruj się Przypomnij hasło Torrenty Kontakt
Torrent Kategorie
 » WSZYSTKIE TORRENTY
FILMY :
 » RMVB9392  
 » (S)VCD564  
 » Divx / Xvid43368  
 » DVD-R2824  
 » x264 / HDTV4527  
 » 4K0  
 » 3D10  
 » TV / Seriale25793  
 » Anime1237  
GRY :
 » Gry PC10733  
 » Gry Konsole4027  
 » Poradniki, spolszczenia i inne0  
PROGRAMY :
 » Windows10030  
 » Linux / Mac806  
MUZYKA :
 » Albumy i składanki48094  
 » Koncerty19  
DOKUMENTY :
 » Książki3727  
 » Audiobooki1448  
 » Czasopisma1582  
 » Komiksy1066  
POZOSTAŁE :
 » Dla Dzieci2664  
 » Sport2239  
 » GSM / PDA1843  
 » Tapety2476  
 » Różne13  
EROTYKA :
 » Filmy XXX20518  
 » Zdjęcia XXX2  
 » Czasopisma XXX530  
 » Gry XXX89  
 » Hentai92  

Detale Torrenta
Nazwa plikuCiekawski George *2006*[AVI][Dubbing PL][Aleksandrow]
Torrent:Ciekawski George *2006*[AVI][Dubbing PL][Aleksandrow].torrent
Info Hash:6f97339be4520f65c9752451475be91e8a8da9d3
Opis:

Ciekawski George *2006*[AVI][Dubbing PL][Aleksandrow]

INFO
Produkcja.....: USA
Gatunek.......: Animacja, Przygodowy, Komedia, Familijny
Data premiery.: 10.02.2006 [Świat]
Reżyseria.....: Matthew O Callaghan
Scenariusz....: Ken Kaufman, Ken Kaufman
Czas trwania..: 87 min.
More..........: http://www.imdb.com/title/tt0381971
Trailer.......: http://www.imdb.com/video/screenplay/vi2036138521
Trailer.......: http://www.youtube.com/watch?v=Whw4dsLAmPE
OPIS
Will Farrell wciela się w postać Mężczyzny w Żółtym Kapeluszu - dżentelmena, który opiekuje się swoim nieznośnym zwierzątkiem - małpką. Niezwykle ciekawskie, ale zarazem wspaniałe stworzenie, często poddaje sie zapałowi, a entuzjazm niejednokrotnie bierze nad nim górę..
Obsada :
OBSADA
Frank Welker ... George (voice)
Will Ferrell ... Ted - Man with the Yellow Hat (voice)
Shane Baumel ... Kid (voice)
Timyra-Joi Beatty ... Kid (voice)
Eugene Levy ... Clovis (voice)
Christopher Chen ... Kid (voice)
Jessie Flower ... Kid (voice)
Dick Van Dyke ... Mr. Bloomsberry (voice)
Alexander Gould ... Kid (voice)
Terrence Hardy Jr. ... Kid (voice) (as Terrence Hardy)
Hailey Noelle Johnson ... Kid (voice)
Kelsey Lansdowne ... Kid (voice)
Ariel Winter ... Kid (voice)
Drew Barrymore ... Maggie (voice)
David Cross ... Junior (voice)
DANE TECHNICZNE:
General
General
Complete name : C:UsersAlexDesktopFRANEK I KASIA1.Bajki i filmy dla FraniaCiekawski George 2006Ciekawski George 2006.avi
Format : AVI
Format/Info : Audio Video Interleave
File size : 804 MiB
Duration : 1h 23mn
Overall bit rate : 1 344 Kbps
Video
ID : 0
Format : MPEG-4 Visual
Format profile : Simple@L3
Format settings, BVOP : No
Format settings, QPel : No
Format settings, GMC : No warppoints
Format settings, Matrix : Default (H.263)
Codec ID : XVID
Codec ID/Hint : XviD
Duration : 1h 23mn
Bit rate : 1 199 Kbps
Width : 856 pixels
Height : 480 pixels
Display aspect ratio : 16:9
Frame rate : 25.000 fps
Color space : YUV
Chroma subsampling : 4:2:0
Bit depth : 8 bits
Scan type : Progressive
Compression mode : Lossy
Bits/(Pixel*Frame) : 0.117
Stream size : 718 MiB (89%)
Writing library : XviD 1.2.1 (UTC 2008-12-04)
Audio
ID : 1
Format : MPEG Audio
Format version : Version 1
Format profile : Layer 3
Mode : Joint stereo
Mode extension : MS Stereo
Codec ID : 55
Codec ID/Hint : MP3
Duration : 1h 23mn
Bit rate mode : Constant
Bit rate : 128 Kbps
Channel(s) : 2 channels
Sampling rate : 44.1 KHz
Compression mode : Lossy
Stream size : 76.6 MiB (10%)
Alignment : Aligned on interleaves
Interleave, duration : 26 ms (0.65 video frame)
Writing library : LAME3.98.2
FILMWEB
http://www.filmweb.pl/Ciekawski.George#
Kategoria:Dla Dzieci
Ocena: N/A
Rozmiar:804.02 MiB
Dodane:10/03/2015 02:14:26
Uploader:rutin11
Statystyki:Seedów: 0   Leecherów: 0
Ostatnie Uaktualnienie10/11/2017 15:28:41


Brak komentarzy...


Wstecz

Copyright © 2009-2018 vTorrent.pl
Wszelkie uwagi odnośnie funkcjonowania strony prosimy kierować przez formularz kontaktowy

[ Script Execution time: 0.0186 sec. ] - [ GZIP: disabled ]