Witamy Guest (Zaloguj) Zarejestruj się Przypomnij hasło Torrenty Kontakt
Torrent Kategorie
 » WSZYSTKIE TORRENTY
FILMY :
 » RMVB9392  
 » (S)VCD564  
 » Divx / Xvid43297  
 » DVD-R2824  
 » x264 / HDTV4520  
 » 4K0  
 » 3D10  
 » TV / Seriale25733  
 » Anime1237  
GRY :
 » Gry PC10733  
 » Gry Konsole4027  
 » Poradniki, spolszczenia i inne0  
PROGRAMY :
 » Windows10029  
 » Linux / Mac806  
MUZYKA :
 » Albumy i składanki48067  
 » Koncerty17  
DOKUMENTY :
 » Książki3727  
 » Audiobooki1448  
 » Czasopisma1582  
 » Komiksy1066  
POZOSTAŁE :
 » Dla Dzieci2664  
 » Sport2239  
 » GSM / PDA1843  
 » Tapety2476  
 » Różne13  
EROTYKA :
 » Filmy XXX20518  
 » Zdjęcia XXX2  
 » Czasopisma XXX530  
 » Gry XXX89  
 » Hentai92  

Detale Torrenta
Nazwa plikuWkręceni 2 *2014*[rmvb] Film Polski
Torrent:Wkręceni 2 *2014*[rmvb] Film Polski.torrent
Info Hash:b77a88874d8a0e8e67ea57cd29ae418526143cd8
Opis:

Info:-

reżyseria: Piotr Wereśniak
scenariusz: Piotr Wereśniak
gatunek: Komedia
produkcja: Polska
premiera: 16 stycznia 2015 (Polska) 16 stycznia 2015 (świat)


Opis:-

Szyja poznaje seksowną Klementynę, która zabiera go do Warszawy i wprowadza w świat show-biznesu. Jego zazdrosna żona Jadźka chce za wszelką cenę odzyskać męża, chociażby siłą.

Obsada:-

Paweł Domagała -Tomek "Szyja" Zarówny / Miki Mazur
Małgorzata Socha -Klementyna
Bartosz Opania -Zenobiusz "Fikoł" Kozioł
Marta Żmuda Trzebiatowska -Dolores Medeiros
Barbara Kurdej-Szatan -Jadźka
Antoni Królikowski -"Stopklatka"
Filip Bobek -Leo Brant
Leszek Lichota -"Lufa"

Dane Tech:-

Wkręceni 2 2014(Polski film).rmvb
Format : RealMedia
File size : 289 MiB
Duration : 1h 31mn
Overall bit rate : 430 Kbps

Video
ID : 0
Format : RealVideo 4
Codec ID : RV40
Codec ID/Info : Based on AVC (H.264), Real Player 9
Duration : 1h 31mn
Bit rate : 334 Kbps
Width : 640 pixels
Height : 352 pixels
Display aspect ratio : 16:9
Frame rate : 25.000 fps
Bits/(Pixel*Frame) : 0.059
Stream size : 219 MiB (76%)

Audio
ID : 1
Format : Cooker
Codec ID : cook
Codec ID/Info : Based on G.722.1, Real Player 6
Duration : 1h 31mn
Bit rate : 96.5 Kbps
Channel(s) : 2 channels
Sampling rate : 44.1 KHz
Bit depth : 16 bits
Stream size : 63.1 MiB (22%)
Kategoria:(S)VCD
Ocena: N/A
Rozmiar:289.22 MiB
Dodane:13/05/2015 20:03:21
Uploader:Pietraś
Statystyki:Seedów: -/-    Leecherów: -/-
Ostatnie Uaktualnienie31/12/2017 13:04:00


Brak komentarzy...


Wstecz

Copyright © 2009-2018 vTorrent.pl
Wszelkie uwagi odnośnie funkcjonowania strony prosimy kierować przez formularz kontaktowy

[ Script Execution time: 0.0119 sec. ] - [ GZIP: disabled ]