Witamy Guest (Zaloguj) Zarejestruj się Przypomnij hasło Torrenty Kontakt
Torrent Kategorie
 » WSZYSTKIE TORRENTY
FILMY :
 » RMVB9392  
 » (S)VCD564  
 » Divx / Xvid43295  
 » DVD-R2824  
 » x264 / HDTV4520  
 » 4K0  
 » 3D10  
 » TV / Seriale25652  
 » Anime1237  
GRY :
 » Gry PC10733  
 » Gry Konsole4027  
 » Poradniki, spolszczenia i inne0  
PROGRAMY :
 » Windows10029  
 » Linux / Mac806  
MUZYKA :
 » Albumy i składanki48067  
 » Koncerty17  
DOKUMENTY :
 » Książki3727  
 » Audiobooki1448  
 » Czasopisma1582  
 » Komiksy1066  
POZOSTAŁE :
 » Dla Dzieci2664  
 » Sport2239  
 » GSM / PDA1843  
 » Tapety2476  
 » Różne13  
EROTYKA :
 » Filmy XXX20518  
 » Zdjęcia XXX2  
 » Czasopisma XXX530  
 » Gry XXX89  
 » Hentai92  

Detale Torrenta
Nazwa plikuBarbie Super Księżniczki-Barbie in Princess Power *2015*[720p][BRRip.XViD.AC3-SLiSU] Dubing Pl
Torrent:Barbie Super Księżniczki-Barbie in Princess Power *2015*[720p][BRRip.XViD.AC3-SLiSU] Dubing Pl.torrent
Info Hash:bc9b631d9e3aeba880893b1b71722f3629ac7ed7
Opis:

info:-

reżyseria: Ezekiel Norton
scenariusz: Marsha F. Griffin
gatunek: Animacja
produkcja: USA
premiera: 6 lutego 2015 (Polska) 1 stycznia 2015 (świat)

http://www.filmweb.pl/film/Barbie%3A+Super+księżniczki-2015-709605

Opis:-
Tym razem Barbie wciela się w postać Kary, współczesnej księżniczki. Pewnego dnia Kara zostaje pocałowana przez magicznego motyla i odkrywa w sobie niezwykłą moc, która zmienia ją w Super Iskrę, walczącą ze złem. Szybko jednak okazuje się, że jej zazdrosna kuzynka także łapie motyla i zamienia się w Mocną Iskrę, rywalkę Kary. Rywalizacja bohaterek staje się coraz poważniejsza - aż do chwili, kiedy poznają prawdziwego wroga królestwa. Czy teraz będą potrafiły pogodzić się i stworzyć jedną superdrużynę? Wznieś się na wyżyny i odkryj, że nie istnieje siła potężniejsza od siły przyjaźni!

Obsada:-

Kelly Sheridan .... Kara (Super Iskra)
Britt Irvin .... Corinne (Ciemna Iskra)
Michael Kopsa .... Baron Von Ravendale
Rebecca Husain .... Madison
Kira Tozer .... Makalya
Patricia Drake .... Król Kristoff / Budowlaniec
Michael Adamthwaite .... Wes Rivers

Dane Tech:-

Barbie super księżniczkiBarbie.in.Princess.Power.2015.PLDUB.720p.BRRip.XViD.AC3-SLiSU.avi
Format : AVI
Format/Info : Audio Video Interleave
File size : 1.60 GiB
Duration : 1h 13mn
Overall bit rate : 3 104 Kbps

Video
ID : 0
Format : MPEG-4 Visual
Format profile : Advanced Simple@L5
Format settings, BVOP : 2
Format settings, QPel : No
Format settings, GMC : No warppoints
Format settings, Matrix : Default (H.263)
Codec ID : XVID
Codec ID/Hint : XviD
Duration : 1h 13mn
Bit rate : 2 711 Kbps
Width : 1 280 pixels
Height : 720 pixels
Display aspect ratio : 16:9
Frame rate : 23.976 fps
Color space : YUV
Chroma subsampling : 4:2:0
Bit depth : 8 bits
Scan type : Progressive
Compression mode : Lossy
Bits/(Pixel*Frame) : 0.123
Stream size : 1.40 GiB (87%)
Writing library : XviD 64

Audio
ID : 1
Format : AC-3
Format/Info : Audio Coding 3
Mode extension : CM (complete main)
Format settings, Endianness : Big
Codec ID : 2000
Duration : 1h 13mn
Source duration : 1h 13mn
Bit rate mode : Constant
Bit rate : 384 Kbps
Channel(s) : 6 channels
Channel positions : Front: L C R, Side: L R, LFE
Sampling rate : 48.0 KHz
Bit depth : 16 bits
Compression mode : Lossy
Stream size : 203 MiB (12%)
Alignment : Aligned on interleaves
Interleave, duration : 42 ms (1.00 video frame)
Kategoria:(S)VCD
Ocena: N/A
Rozmiar:1.60 GiB
Dodane:11/06/2015 20:36:46
Uploader:Pietraś
Statystyki:Seedów: -/-    Leecherów: -/-
Ostatnie Uaktualnienie08/11/2017 23:26:08


Brak komentarzy...


Wstecz

Copyright © 2009-2018 vTorrent.pl
Wszelkie uwagi odnośnie funkcjonowania strony prosimy kierować przez formularz kontaktowy

[ Script Execution time: 0.0173 sec. ] - [ GZIP: disabled ]