Witamy Guest (Zaloguj) Zarejestruj się Przypomnij hasło Torrenty Kontakt Napisy PL
Torrent Kategorie
 » WSZYSTKIE TORRENTY
FILMY :
 » RMVB9395  
 » (S)VCD564  
 » Divx / Xvid58638  
 » DVD-R2866  
 » x264 / HDTV6424  
 » 4K14  
 » 3D99  
 » TV / Seriale39117  
 » Anime1294  
GRY :
 » Gry PC14465  
 » Gry Konsole4081  
 » Poradniki, spolszczenia i inne1  
PROGRAMY :
 » Windows11765  
 » Linux / Mac806  
MUZYKA :
 » Albumy i składanki62544  
 » Koncerty148  
DOKUMENTY :
 » Książki10914  
 » Audiobooki3975  
 » Czasopisma2086  
 » Komiksy1127  
POZOSTAŁE :
 » Dla Dzieci2802  
 » Sport2619  
 » GSM / PDA1942  
 » Tapety2574  
 » Różne31  
EROTYKA :
 » Filmy XXX25408  
 » Zdjęcia XXX121  
 » Czasopisma XXX548  
 » Gry XXX103  
 » Hentai93  

Detale Torrenta
Nazwa pliku RoboCop.*2014* [DVDRip] [XviD] [AC3-RARBG] [ENG] [Napisy pl]
Torrent: RoboCop.*2014* [DVDRip] [XviD] [AC3-RARBG] [ENG] [Napisy pl].torrent
Info Hash:ba40f78da731d39a16ff73335b193ea94ec8777e
Opis:

INFO:

Tytuł: RoboCop
Ocena: IMDB - 6.7/10 (42646), Filmweb - 6.7/10 (5647)
Produkcja: USA
Gatunek: Akcja, Sci-Fi
Czas trwania: 108 min.
Premiera: 07.02.2014 - Polska, 30.01.2014 - Świat
Reżyseria: José Padilha
Scenariusz: Joshua Zetumer, Edward Neumeier

OPIS:

W 2028 roku międzynarodowa korporacja OmniCorp jest wiodącym producentem w branży robotyki. Wytwarzane przez nią Drony już od lat wspierają zagraniczne siły militarne, przynosząc wytwórcom milionowe zyski. Teraz nadarzyła się okazja, by wypróbować kontrowersyjne technologie na rodzimym rynku. Alex Murphy (Joel Kinnaman), kochający mąż, wzorowy ojciec i doskonały policjant, daje z siebie wszystko, aby powstrzymać falę przestępstw w Detroit. Gdy zostaje ciężko ranny na służbie,

OBSADA:

... Joel Kinnaman as Alex Murphy / RoboCop
... Gary Oldman as Dr. Dennett Norton
... Michael Keaton as Raymond Sellars
... Abbie Cornish as Clara Murphy
... Jackie Earle Haley as Rick Mattox
... Michael K. Williams as Jack Lewis
... Jennifer Ehle as Liz Kline
... Jay Baruchel as Tom Pope
... Marianne Jean-Baptiste as Chief Karen Dean
... Samuel L. Jackson as Pat Novak

Napisy pl w osobnym pliku

DANE TECH:

Info:
Format : AVI
Format/Info : Audio Video Interleave
File size : 1.15 GiB
Duration : 1h 57mn
Overall bit rate : 1 405 Kbps
Movie name : RARBG.COM - RoboCop.2014.DVDRip.XviD.MP3-RARBG
Writing library : VirtualDub build 35491/release
Comment : RARBG.COM - RoboCop.2014.DVDRip.XviD.MP3-RARBG

Video
ID : 0
Format : MPEG-4 Visual
Format profile : Simple@L5
Format settings, BVOP : No
Format settings, QPel : No
Format settings, GMC : No warppoints
Format settings, Matrix : Default (H.263)
Codec ID : XVID
Codec ID/Hint : XviD
Duration : 1h 57mn
Bit rate : 1 200 Kbps
Width : 720 pixels
Height : 362 pixels
Display aspect ratio : 2.35:1
Frame rate : 23.976 fps
Color space : YUV
Chroma subsampling : 4:2:0
Bit depth : 8 bits
Scan type : Progressive
Compression mode : Lossy
Bits/(Pixel*Frame) : 0.192
Stream size : 1 008 MiB (85%)
Writing library : Lavc55.55.104

Audio
ID : 1
Format : MPEG Audio
Format version : Version 1
Format profile : Layer 3
Mode : Joint stereo
Mode extension : MS Stereo
Codec ID : 55
Codec ID/Hint : MP3
Duration : 1h 57mn
Bit rate mode : Constant
Bit rate : 192 Kbps
Channel(s) : 2 channels
Sampling rate : 48.0 KHz
Compression mode : Lossy
Stream size : 161 MiB (14%)
Alignment : Aligned on interleaves
Interleave, duration : 24 ms (0.58 video frame)
Interleave, preload duration : 504 ms
Kategoria:Divx / Xvid
Ocena: N/A
Rozmiar:1.69 GiB
Dodane:07/05/2014 14:02:29
Uploader:Pacito40
Statystyki:Seedów: 0   Leecherów: 0
Ostatnie Uaktualnienie07/11/2017 21:22:39




pawelwsc01/01/2015 00.00.00
Film niezła nędza, ogladałem na HBO


Wstecz

Copyright © 2009-2018 vTorrent.pl
Wszelkie uwagi odnośnie funkcjonowania strony prosimy kierować przez formularz kontaktowy

[ Script Execution time: 0.5493 sec. ] - [ GZIP: disabled ]