Witamy Guest (Zaloguj) Zarejestruj się Przypomnij hasło Torrenty Kontakt Napisy PL
Torrent Kategorie
 » WSZYSTKIE TORRENTY
FILMY :
 » RMVB9395  
 » (S)VCD564  
 » Divx / Xvid56920  
 » DVD-R2866  
 » x264 / HDTV6360  
 » 4K8  
 » 3D98  
 » TV / Seriale37896  
 » Anime1293  
GRY :
 » Gry PC14128  
 » Gry Konsole4057  
 » Poradniki, spolszczenia i inne1  
PROGRAMY :
 » Windows11644  
 » Linux / Mac806  
MUZYKA :
 » Albumy i składanki61599  
 » Koncerty141  
DOKUMENTY :
 » Książki8792  
 » Audiobooki3936  
 » Czasopisma2035  
 » Komiksy1127  
POZOSTAŁE :
 » Dla Dzieci2798  
 » Sport2566  
 » GSM / PDA1939  
 » Tapety2542  
 » Różne27  
EROTYKA :
 » Filmy XXX24219  
 » Zdjęcia XXX64  
 » Czasopisma XXX548  
 » Gry XXX103  
 » Hentai93  

Detale Torrenta
Nazwa plikuOstatni taniec - The Last Dance [S01E08] [720p] [WEB] [X264] [Napisy PL]
Torrent:Ostatni taniec - The Last Dance [S01E08] [720p] [WEB] [X264] [Napisy PL].torrent
Info Hash:befa3dc7d9b0179cf2855768eeca5fe88f121ce0
Opis:

Info

Produkcja: USA
Gatunek: Dokumentalny
Twórca: Jason Hehir
Platforma: ESPN, Netflix
Premiera: 19 kwiecień 2020


Opis

Historia wzrostu drużyny Chicago Bulls w latach 90., której liderem był Michael Jordan.

Obsada

Michael Jordan
Scottie Pippen
Dennis Rodman


Screenshot / Wideo

https://www.youtube.com/watch?v=Peh9Yqf1GXc

Dane Techniczne

Video
ID : 1
Format : AVC
Format/Info : Advanced Video Codec
Format profile : MainL3.1
Format settings : CABAC / 3 Ref Frames
Format settings, CABAC : Yes
Format settings, Reference frames : 3 frames
Codec ID : V_MPEG4/ISO/AVC
Duration : 50 min 51 s
Bit rate mode : Variable
Bit rate : 4 220 kb/s
Maximum bit rate : 6 330 kb/s
Width : 1 280 pixels
Height : 720 pixels
Display aspect ratio : 16:9
Frame rate mode : Constant
Frame rate : 23.976 (24000/1001) FPS
Color space : YUV
Chroma subsampling : 4:2:0
Bit depth : 8 bits
Scan type : Progressive
Bits/(PixelFrame) : 0.191
Stream size : 1.47 GiB (86)
Writing library : x264 core 148 r2717 0d2410d
Encoding settings : cabac=1 / ref=3 / deblock=1:0:0 / analyse=0x1:0x111 / me=umh / subme=10 / psy=1 / psy_rd=1.00:0.00 / mixed_ref=1 / me_range=24 / chroma_me=1 / trellis=2 / 8x8dct=0 / cqm=0 / deadzone=21,11 / fast_pskip=1 / chroma_qp_offset=-2 / threads=8 / lookahead_threads=1 / sliced_threads=0 / nr=0 / decimate=1 / interlaced=0 / bluray_compat=0 / stitchable=1 / constrained_intra=0 / bframes=2 / b_pyramid=0 / b_adapt=2 / b_bias=0 / direct=3 / weightb=1 / open_gop=0 / weightp=2 / keyint=250 / keyint_min=23 / scenecut=0 / intra_refresh=0 / rc_lookahead=48 / rc=2pass / mbtree=1 / bitrate=4220 / ratetol=1.0 / qcomp=0.50 / qpmin=6 / qpmax=51 / qpstep=4 / cplxblur=20.0 / qblur=0.5 / vbv_maxrate=6330 / vbv_bufsize=8440 / nal_hrd=vbr / filler=0 / ip_ratio=1.40 / aq=1:1.00
Default : Yes
Forced : No

Audio
ID : 2
Format : E-AC-3
Format/Info : Enhanced AC-3
Commercial name : Dolby Digital Plus
Codec ID : A_EAC3
Duration : 50 min 51 s
Bit rate mode : Constant
Bit rate : 640 kb/s
Channel(s) : 6 channels
Channel layout : L R C LFE Ls Rs
Sampling rate : 48.0 kHz
Frame rate : 31.250 FPS (1536 SPF)
Compression mode : Lossy
Stream size : 233 MiB (13)
Title : English
Language : English
Service kind : Complete Main
Default : Yes
Forced : No

Text #1
ID : 3
Format : UTF-8
Codec ID : S_TEXT/UTF8
Codec ID/Info : UTF-8 Plain Text
Duration : 32 min 7 s
Bit rate : 1 b/s
Count of elements : 10
Stream size : 471 Bytes (0)
Title : Forced
Language : English
Default : Yes
Forced : Yes

Text #2
ID : 4
Format : UTF-8
Codec ID : S_TEXT/UTF8
Codec ID/Info : UTF-8 Plain Text
Duration : 49 min 5 s
Bit rate : 117 b/s
Count of elements : 869
Stream size : 42.4 KiB (0)
Title : SDH
Language : English
Default : No
Forced : No

Text #3
ID : 5
Format : UTF-8
Codec ID : S_TEXT/UTF8
Codec ID/Info : UTF-8 Plain Text
Duration : 49 min 51 s
Bit rate : 175 b/s
Count of elements : 904
Stream size : 63.9 KiB (0)
Language : Arabic
Default : No
Forced : No

Text #4
ID : 6
Format : UTF-8
Codec ID : S_TEXT/UTF8
Codec ID/Info : UTF-8 Plain Text
Duration : 49 min 51 s
Bit rate : 101 b/s
Count of elements : 890
Stream size : 37.0 KiB (0)
Language : Czech
Default : No
Forced : No

Text #5
ID : 7
Format : UTF-8
Codec ID : S_TEXT/UTF8
Codec ID/Info : UTF-8 Plain Text
Duration : 49 min 51 s
Bit rate : 96 b/s
Count of elements : 882
Stream size : 35.1 KiB (0)
Language : Danish
Default : No
Forced : No

Text #6
ID : 8
Format : UTF-8
Codec ID : S_TEXT/UTF8
Codec ID/Info : UTF-8 Plain Text
Duration : 49 min 51 s
Bit rate : 97 b/s
Count of elements : 853
Stream size : 35.6 KiB (0)
Language : German
Default : No
Forced : No

Text #7
ID : 9
Format : UTF-8
Codec ID : S_TEXT/UTF8
Codec ID/Info : UTF-8 Plain Text
Duration : 49 min 51 s
Bit rate : 167 b/s
Count of elements : 904
Stream size : 61.3 KiB (0)
Language : Greek
Default : No
Forced : No

Text #8
ID : 10
Format : UTF-8
Codec ID : S_TEXT/UTF8
Codec ID/Info : UTF-8 Plain Text
Duration : 49 min 51 s
Bit rate : 105 b/s
Count of elements : 892
Stream size : 38.5 KiB (0)
Language : Spanish
Default : No
Forced : No

Text #9
ID : 11
Format : UTF-8
Codec ID : S_TEXT/UTF8
Codec ID/Info : UTF-8 Plain Text
Duration : 49 min 8 s
Bit rate : 103 b/s
Count of elements : 872
Stream size : 37.3 KiB (0)
Title : European
Language : Spanish
Default : No
Forced : No

Text #10
ID : 12
Format : UTF-8
Codec ID : S_TEXT/UTF8
Codec ID/Info : UTF-8 Plain Text
Duration : 49 min 51 s
Bit rate : 89 b/s
Count of elements : 882
Stream size : 32.8 KiB (0)
Language : Finnish
Default : No
Forced : No

Text #11
ID : 13
Format : UTF-8
Codec ID : S_TEXT/UTF8
Codec ID/Info : UTF-8 Plain Text
Duration : 49 min 51 s
Bit rate : 101 b/s
Count of elements : 879
Stream size : 37.2 KiB (0)
Language : French
Default : No
Forced : No

Text #12
ID : 14
Format : UTF-8
Codec ID : S_TEXT/UTF8
Codec ID/Info : UTF-8 Plain Text
Duration : 49 min 51 s
Bit rate : 148 b/s
Count of elements : 904
Stream size : 54.3 KiB (0)
Language : Hebrew
Default : No
Forced : No

Text #13
ID : 15
Format : UTF-8
Codec ID : S_TEXT/UTF8
Codec ID/Info : UTF-8 Plain Text
Duration : 49 min 51 s
Bit rate : 104 b/s
Count of elements : 895
Stream size : 38.3 KiB (0)
Language : Hungarian
Default : No
Forced : No

Text #14
ID : 16
Format : UTF-8
Codec ID : S_TEXT/UTF8
Codec ID/Info : UTF-8 Plain Text
Duration : 49 min 51 s
Bit rate : 97 b/s
Count of elements : 881
Stream size : 35.5 KiB (0)
Language : Indonesian
Default : No
Forced : No

Text #15
ID : 17
Format : UTF-8
Codec ID : S_TEXT/UTF8
Codec ID/Info : UTF-8 Plain Text
Duration : 49 min 51 s
Bit rate : 99 b/s
Count of elements : 861
Stream size : 36.5 KiB (0)
Language : Italian
Default : No
Forced : No

Text #16
ID : 18
Format : UTF-8
Codec ID : S_TEXT/UTF8
Codec ID/Info : UTF-8 Plain Text
Duration : 49 min 51 s
Bit rate : 124 b/s
Count of elements : 946
Stream size : 45.3 KiB (0)
Language : Japanese
Default : No
Forced : No

Text #17
ID : 19
Format : UTF-8
Codec ID : S_TEXT/UTF8
Codec ID/Info : UTF-8 Plain Text
Duration : 49 min 51 s
Bit rate : 130 b/s
Count of elements : 903
Stream size : 47.7 KiB (0)
Language : Korean
Default : No
Forced : No

Text #18
ID : 20
Format : UTF-8
Codec ID : S_TEXT/UTF8
Codec ID/Info : UTF-8 Plain Text
Duration : 49 min 51 s
Bit rate : 100 b/s
Count of elements : 880
Stream size : 36.7 KiB (0)
Language : Norwegian Bokmal
Default : No
Forced : No

Text #19
ID : 21
Format : UTF-8
Codec ID : S_TEXT/UTF8
Codec ID/Info : UTF-8 Plain Text
Duration : 49 min 51 s
Bit rate : 87 b/s
Count of elements : 872
Stream size : 31.9 KiB (0)
Language : Dutch
Default : No
Forced : No

Text #20
ID : 22
Format : UTF-8
Codec ID : S_TEXT/UTF8
Codec ID/Info : UTF-8 Plain Text
Duration : 49 min 51 s
Bit rate : 100 b/s
Count of elements : 891
Stream size : 36.6 KiB (0)
Language : Polish
Default : No
Forced : No

Text #21
ID : 23
Format : UTF-8
Codec ID : S_TEXT/UTF8
Codec ID/Info : UTF-8 Plain Text
Duration : 49 min 51 s
Bit rate : 98 b/s
Count of elements : 893
Stream size : 36.1 KiB (0)
Language : Portuguese
Default : No
Forced : No

Text #22
ID : 24
Format : UTF-8
Codec ID : S_TEXT/UTF8
Codec ID/Info : UTF-8 Plain Text
Duration : 49 min 51 s
Bit rate : 95 b/s
Count of elements : 875
Stream size : 34.9 KiB (0)
Title : Brazilian
Language : Portuguese
Default : No
Forced : No

Text #23
ID : 25
Format : UTF-8
Codec ID : S_TEXT/UTF8
Codec ID/Info : UTF-8 Plain Text
Duration : 49 min 51 s
Bit rate : 106 b/s
Count of elements : 886
Stream size : 38.8 KiB (0)
Language : Romanian
Default : No
Forced : No

Text #24
ID : 26
Format : UTF-8
Codec ID : S_TEXT/UTF8
Codec ID/Info : UTF-8 Plain Text
Duration : 49 min 51 s
Bit rate : 175 b/s
Count of elements : 901
Stream size : 63.9 KiB (0)
Language : Russian
Default : No
Forced : No

Text #25
ID : 27
Format : UTF-8
Codec ID : S_TEXT/UTF8
Codec ID/Info : UTF-8 Plain Text
Duration : 49 min 51 s
Bit rate : 101 b/s
Count of elements : 871
Stream size : 37.1 KiB (0)
Language : Swedish
Default : No
Forced : No

Text #26
ID : 28
Format : UTF-8
Codec ID : S_TEXT/UTF8
Codec ID/Info : UTF-8 Plain Text
Duration : 49 min 51 s
Bit rate : 281 b/s
Count of elements : 903
Stream size : 103 KiB (0)
Language : Thai
Default : No
Forced : No

Text #27
ID : 29
Format : UTF-8
Codec ID : S_TEXT/UTF8
Codec ID/Info : UTF-8 Plain Text
Duration : 49 min 51 s
Bit rate : 103 b/s
Count of elements : 844
Stream size : 37.9 KiB (0)
Language : Turkish
Default : No
Forced : No

Text #28
ID : 30
Format : UTF-8
Codec ID : S_TEXT/UTF8
Codec ID/Info : UTF-8 Plain Text
Duration : 49 min 8 s
Bit rate : 136 b/s
Count of elements : 894
Stream size : 49.2 KiB (0)
Language : Vietnamese
Default : No
Forced : No

Text #29
ID : 31
Format : UTF-8
Codec ID : S_TEXT/UTF8
Codec ID/Info : UTF-8 Plain Text
Duration : 49 min 52 s
Bit rate : 110 b/s
Count of elements : 901
Stream size : 40.3 KiB (0)
Title : Simplified
Language : Chinese
Default : No
Forced : No
Kategoria:TV / Seriale
Ocena: N/A
Rozmiar:1.70 GiB
Dodane:13/05/2020 04:45:15
Uploader:Ishimura
Statystyki:Seedów: 17   Leecherów: 0
Ostatnie Uaktualnienie31/07/2020 14:24:08




gumijagoda18/05/2020 21.20.22
czy można prosić o odcinek 9 i 10 z góry dziękuję


Wstecz

Copyright © 2009-2018 vTorrent.pl
Wszelkie uwagi odnośnie funkcjonowania strony prosimy kierować przez formularz kontaktowy

[ Script Execution time: 0.0355 sec. ] - [ GZIP: disabled ]