Witamy Guest (Zaloguj) Zarejestruj się Przypomnij hasło Torrenty Kontakt Napisy PL
Torrent Kategorie
 » WSZYSTKIE TORRENTY
FILMY :
 » RMVB9395  
 » (S)VCD564  
 » Divx / Xvid59246  
 » DVD-R2866  
 » x264 / HDTV6469  
 » 4K24  
 » 3D100  
 » TV / Seriale39545  
 » Anime1294  
GRY :
 » Gry PC14694  
 » Gry Konsole4081  
 » Poradniki, spolszczenia i inne2  
PROGRAMY :
 » Windows11775  
 » Linux / Mac806  
MUZYKA :
 » Albumy i składanki63098  
 » Koncerty158  
DOKUMENTY :
 » Książki12108  
 » Audiobooki3982  
 » Czasopisma2103  
 » Komiksy1127  
POZOSTAŁE :
 » Dla Dzieci2804  
 » Sport2623  
 » GSM / PDA1944  
 » Tapety2580  
 » Różne31  
EROTYKA :
 » Filmy XXX25460  
 » Zdjęcia XXX124  
 » Czasopisma XXX548  
 » Gry XXX105  
 » Hentai93  

Detale Torrenta
Nazwa plikuFatale 2020 [1080p.AMZN.WEBRip.DDP5.1.x264-NOGRP] [ENG] [Sub.ENG]
Torrent:Fatale 2020 [1080p.AMZN.WEBRip.DDP5.1.x264-NOGRP] [ENG] [Sub.ENG].torrent
Info Hash:5a1e6dfe686414aa1ca1cd60a247e71b6fe4f7ca
Opis:

Info
https://www.imdb.com/title/tt8829830/
https://www.filmweb.pl/film/Fatale-2020-849221
Gatunek: Thriller
Produkcja: USA, Summit Entertainment
Data premiery: 18 grudnia 2020 (Stany Zjednoczone)
Reżyser: Deon Taylor
Scenariusz: David Loughery
Producenci: Deon Taylor, Roxanne Avent, Robert Smith

Opis
Po jednej nocy żonaty mężczyzna odnoszący sukcesy zostaje wplątany w ostatnie śledztwo przebiegłego policyjnego detektywa.

Obsada
Hilary Swank jako detektyw Valerie Quinlan
Michael Ealy jako Derrick Tyler
Mike Colter jako Rafe Grimes
Geoffrey Owens jako Bill Cranepool
Damaris Lewis jako Tracie Tyler
Danny Pino jako Carter Haywood
David Hoflin jako oficer Lowe
Sam Daly jako oficer Stallman
Tyrin Turner jako Tyrin Abenathy
Kali Hawk jako Micaela
Denise Dowse jako Valeria
Ian Stanley jako pierwszy oficer

Screenshot / Wideo




https://www.youtube.com/watch?v=tPWURGgKJ7o

Dane Techniczne
MediaInfo
Video
ID : 1
Format : AVC
Format/Info : Advanced Video Codec
Format profile : HighL4
Format settings : CABAC / 4 Ref Frames
Format settings, CABAC : Yes
Format settings, Reference frames : 4 frames
Codec ID : V_MPEG4/ISO/AVC
Duration : 1 h 42 min
Bit rate : 7 463 kb/s
Width : 1 920 pixels
Height : 800 pixels
Display aspect ratio : 2.40:1
Frame rate mode : Constant
Frame rate : 23.976 (24000/1001) FPS
Color space : YUV
Chroma subsampling : 4:2:0
Bit depth : 8 bits
Scan type : Progressive
Bits/(PixelFrame) : 0.203
Stream size : 5.35 GiB (92)
Language : English
Default : Yes
Forced : No
Color range : Limited
Color primaries : BT.709
Transfer characteristics : BT.709
Matrix coefficients : BT.709

Audio
ID : 2
Format : E-AC-3
Format/Info : Enhanced AC-3
Commercial name : Dolby Digital Plus
Codec ID : A_EAC3
Duration : 1 h 42 min
Bit rate mode : Constant
Bit rate : 640 kb/s
Channel(s) : 6 channels
Channel layout : L R C LFE Ls Rs
Sampling rate : 48.0 kHz
Frame rate : 31.250 FPS (1536 SPF)
Compression mode : Lossy
Stream size : 470 MiB (8)
Language : English
Service kind : Complete Main
Default : Yes
Forced : No

Text
ID : 3
Format : UTF-8
Codec ID : S_TEXT/UTF8
Codec ID/Info : UTF-8 Plain Text
Duration : 1 h 37 min
Bit rate : 46 b/s
Count of elements : 1155
Stream size : 33.6 KiB (0)
Language : English
Default : Yes
Forced : No
Kategoria:Divx / Xvid
Ocena: N/A
Rozmiar:5.81 GiB
Dodane:14/01/2021 10:10:02
Uploader:Ishimura
Statystyki:Seedów: 0   Leecherów: 0
Ostatnie Uaktualnienie18/01/2021 17:41:23


Brak komentarzy...


Wstecz

Copyright © 2009-2018 vTorrent.pl
Wszelkie uwagi odnośnie funkcjonowania strony prosimy kierować przez formularz kontaktowy

[ Script Execution time: 0.0193 sec. ] - [ GZIP: disabled ]