Witamy Guest (Zaloguj) Zarejestruj się Przypomnij hasło Torrenty Kontakt Napisy PL
Torrent Kategorie
 » WSZYSTKIE TORRENTY
FILMY :
 » RMVB9396  
 » (S)VCD564  
 » Divx / Xvid73384  
 » DVD-R2868  
 » x264 / HDTV7082  
 » 4K122  
 » 3D101  
 » TV / Seriale42948  
 » Anime1300  
GRY :
 » Gry PC17923  
 » Gry Konsole4136  
 » Poradniki, spolszczenia i inne2  
PROGRAMY :
 » Windows13038  
 » Linux / Mac807  
MUZYKA :
 » Albumy i składanki68217  
 » Koncerty183  
DOKUMENTY :
 » Książki13114  
 » Audiobooki7402  
 » Czasopisma2408  
 » Komiksy1126  
POZOSTAŁE :
 » Dla Dzieci2880  
 » Sport2995  
 » GSM / PDA1955  
 » Tapety2598  
 » Różne31  
EROTYKA :
 » Filmy XXX27091  
 » Zdjęcia XXX124  
 » Czasopisma XXX549  
 » Gry XXX117  
 » Hentai93  

Detale Torrenta
Nazwa plikuBosch: Legacy 2022 [S01E07] [1080p.AMZN.WEBRip.DDP5.1.x264-NTb] [Napisy PL]
Torrent:Bosch: Legacy 2022 [S01E07] [1080p.AMZN.WEBRip.DDP5.1.x264-NTb] [Napisy PL].torrent
Info Hash:a7fd9768ada25b21509777f31281d44d0722e33e
Opis:



Info

Produkcja: USA
Gatunek: Dramat, Kryminał
Twórca: Eric Ellis Overmyer
Platforma: freevee
Premiera: 6 maj 2022

Opis

Bosch rozpoczyna kolejny rozdział swojej kariery i pracuje ze swoim dawnym wrogiem, Honey Chandler.

Obsada

Titus Welliver .... detektyw Harry Bosch
Jamie Hector .... detektyw Jerry Edgar
Amy Aquino .... por. Grace Billets
Lance Reddick .... Irvin Irving
Annie Wersching .... Julia Brasher
Sarah Clarke .... Eleanor Wish
Jason Gedrick .... Raynard Waits
Madison Lintz .... Maddie

https://www.youtube.com/watch?v=o7SQn

Dane Techniczne

MULTi Subtitle

Video
ID : 1
Format : AVC
Format/Info : Advanced Video Codec
Format profile : HighL4
Format settings : CABAC / 4 Ref Frames
Format settings, CABAC : Yes
Format settings, Reference frames : 4 frames
Codec ID : V_MPEG4/ISO/AVC
Duration : 42 min 25 s
Bit rate mode : Constant
Bit rate : 7 467 kb/s
Nominal bit rate : 10 000 kb/s
Width : 1 920 pixels
Height : 1 080 pixels
Display aspect ratio : 16:9
Frame rate mode : Constant
Frame rate : 23.976 (24000/1001) FPS
Color space : YUV
Chroma subsampling : 4:2:0
Bit depth : 8 bits
Scan type : Progressive
Bits/(PixelFrame) : 0.150
Stream size : 2.21 GiB (92)
Default : Yes
Forced : No
Color range : Limited
Color primaries : BT.709
Transfer characteristics : BT.709
Matrix coefficients : BT.709

Audio
ID : 2
Format : E-AC-3
Format/Info : Enhanced AC-3
Commercial name : Dolby Digital Plus
Codec ID : A_EAC3
Duration : 42 min 25 s
Bit rate mode : Constant
Bit rate : 640 kb/s
Channel(s) : 6 channels
Channel layout : L R C LFE Ls Rs
Sampling rate : 48.0 kHz
Frame rate : 31.250 FPS (1536 SPF)
Compression mode : Lossy
Stream size : 194 MiB (8)
Language : English
Service kind : Complete Main
Default : Yes
Forced : No

Text #1
ID : 3
Format : UTF-8
Codec ID : S_TEXT/UTF8
Codec ID/Info : UTF-8 Plain Text
Duration : 41 min 1 s
Bit rate : 62 b/s
Count of elements : 620
Stream size : 18.7 KiB (0)
Language : English
Default : No
Forced : No

Text #23
ID : 25
Format : UTF-8
Codec ID : S_TEXT/UTF8
Codec ID/Info : UTF-8 Plain Text
Duration : 42 min 42 s
Bit rate : 53 b/s
Count of elements : 564
Stream size : 16.6 KiB (0)
Language : Polish
Default : No
Forced : No
Kategoria:TV / Seriale
Ocena: N/A
Rozmiar:2.40 GiB
Dodane:23/05/2022 03:56:02
Uploader:Ishimura
Statystyki:Seedów: 30   Leecherów: 2
Ostatnie Uaktualnienie11/06/2022 19:52:13




hjacek30/05/2022 14.06.38
nie znalazłem napisów


Wstecz

Copyright © 2009-2018 vTorrent.pl
Wszelkie uwagi odnośnie funkcjonowania strony prosimy kierować przez formularz kontaktowy

[ Script Execution time: 0.0109 sec. ] - [ GZIP: disabled ]