Witamy Guest (Zaloguj) Zarejestruj się Przypomnij hasło Torrenty Kontakt Napisy PL
Torrent Kategorie
 » WSZYSTKIE TORRENTY
FILMY :
 » RMVB9396  
 » (S)VCD564  
 » Divx / Xvid74803  
 » DVD-R2869  
 » x264 / HDTV7166  
 » 4K134  
 » 3D101  
 » TV / Seriale43151  
 » Anime1303  
GRY :
 » Gry PC18219  
 » Gry Konsole4136  
 » Poradniki, spolszczenia i inne2  
PROGRAMY :
 » Windows13184  
 » Linux / Mac807  
MUZYKA :
 » Albumy i składanki68315  
 » Koncerty184  
DOKUMENTY :
 » Książki13121  
 » Audiobooki7453  
 » Czasopisma2413  
 » Komiksy1126  
POZOSTAŁE :
 » Dla Dzieci2909  
 » Sport3017  
 » GSM / PDA1955  
 » Tapety2598  
 » Różne32  
EROTYKA :
 » Filmy XXX27947  
 » Zdjęcia XXX128  
 » Czasopisma XXX549  
 » Gry XXX120  
 » Hentai93  

Detale Torrenta
Nazwa plikuResident Evil: Remedium 2022 [S01] [1080p.NF.WEBRip.DDP5.1.Atmos.x264] [Napisy PL]
Torrent:Resident Evil: Remedium 2022 [S01] [1080p.NF.WEBRip.DDP5.1.Atmos.x264] [Napisy PL].torrent
Info Hash:abb6e9c6060aa2a4875e30df92664dc3f0b19a7b
Opis:



Info

Produkcja: USA
Gatunek: Horror, Akcja
Twórca: Andrew Dabb
Platforma: Netflix
Premiera: 2022

Opis

Wiele lat po tym, jak wirus spowodował globalną katastrofę, Jade Wesker walczy z zarażonymi o przeżycie i przysięga, że policzy się z winnymi.

Obsada

Ella Balinska
Tamara Smart
Siena Agudong
Adeline Rudolph
Lance Reddick
Paola N ez

https://www.youtube.com/watch?v=z

Dane Techniczne

Video
ID : 1
Format : AVC
Format/Info : Advanced Video Codec
Format profile : HighL4
Format settings : CABAC / 4 Ref Frames
Format settings, CABAC : Yes
Format settings, Reference frames : 4 frames
Codec ID : V_MPEG4/ISO/AVC
Duration : 1 h 3 min
Bit rate mode : Variable
Bit rate : 6 728 kb/s
Maximum bit rate : 20.0 Mb/s
Width : 1 920 pixels
Height : 1 080 pixels
Display aspect ratio : 16:9
Frame rate mode : Constant
Frame rate : 23.976 (24000/1001) FPS
Color space : YUV
Chroma subsampling : 4:2:0
Bit depth : 8 bits
Scan type : Progressive
Bits/(PixelFrame) : 0.135
Stream size : 2.98 GiB (90)
Writing library : x264 core 148 r2727 7d026e8
Encoding settings : cabac=1 / ref=4 / deblock=1:0:0 / analyse=0x3:0x111 / me=umh / subme=10 / psy=1 / psy_rd=1.00:0.00 / mixed_ref=1 / me_range=120 / chroma_me=1 / trellis=2 / 8x8dct=1 / cqm=0 / deadzone=21,11 / fast_pskip=1 / chroma_qp_offset=-2 / threads=8 / lookahead_threads=2 / sliced_threads=0 / nr=0 / decimate=1 / interlaced=0 / bluray_compat=0 / stitchable=1 / constrained_intra=0 / bframes=16 / b_pyramid=2 / b_adapt=2 / b_bias=0 / direct=3 / weightb=1 / open_gop=0 / weightp=2 / keyint=240 / keyint_min=121 / scenecut=0 / intra_refresh=0 / rc_lookahead=240 / rc=crf / mbtree=1 / crf=16.0 / qcomp=0.50 / qpmin=6 / qpmax=51 / qpstep=4 / vbv_maxrate=20000 / vbv_bufsize=25000 / crf_max=0.0 / nal_hrd=vbr / filler=0 / ip_ratio=1.40 / aq=1:0.80
Default : Yes
Forced : No

Audio
ID : 2
Format : E-AC-3 JOC
Format/Info : Enhanced AC-3 with Joint Object Coding
Commercial name : Dolby Digital Plus with Dolby Atmos
Codec ID : A_EAC3
Duration : 1 h 3 min
Bit rate mode : Constant
Bit rate : 768 kb/s
Channel(s) : 6 channels
Channel layout : L R C LFE Ls Rs
Sampling rate : 48.0 kHz
Frame rate : 31.250 FPS (1536 SPF)
Compression mode : Lossy
Stream size : 349 MiB (10)
Language : English
Service kind : Complete Main
Default : Yes
Forced : No
Complexity index : 16
Number of dynamic objects : 15
Bed channel count : 1 channel
Bed channel configuration : LFE

Text #1
ID : 3
Format : UTF-8
Codec ID : S_TEXT/UTF8
Codec ID/Info : UTF-8 Plain Text
Duration : 55 min 50 s
Bit rate : 27 b/s
Frame rate : 0.153 FPS
Count of elements : 511
Stream size : 11.1 KiB (0)
Language : English
Default : No
Forced : No

Text #2
ID : 4
Format : UTF-8
Codec ID : S_TEXT/UTF8
Codec ID/Info : UTF-8 Plain Text
Duration : 58 min 43 s
Bit rate : 45 b/s
Frame rate : 0.268 FPS
Count of elements : 943
Stream size : 19.4 KiB (0)
Title : SDH
Language : English
Default : No
Forced : No

Text #3
ID : 5
Format : UTF-8
Codec ID : S_TEXT/UTF8
Codec ID/Info : UTF-8 Plain Text
Duration : 1 h 1 min
Bit rate : 41 b/s
Frame rate : 0.139 FPS
Count of elements : 514
Stream size : 18.6 KiB (0)
Language : Arabic
Default : No
Forced : No

Text #4
ID : 6
Format : UTF-8
Codec ID : S_TEXT/UTF8
Codec ID/Info : UTF-8 Plain Text
Duration : 1 h 1 min
Bit rate : 24 b/s
Frame rate : 0.139 FPS
Count of elements : 514
Stream size : 11.1 KiB (0)
Language : Catalan
Default : No
Forced : No

Text #5
ID : 7
Format : UTF-8
Codec ID : S_TEXT/UTF8
Codec ID/Info : UTF-8 Plain Text
Duration : 1 h 1 min
Bit rate : 25 b/s
Frame rate : 0.139 FPS
Count of elements : 513
Stream size : 11.5 KiB (0)
Language : Czech
Default : No
Forced : No

Text #6
ID : 8
Format : UTF-8
Codec ID : S_TEXT/UTF8
Codec ID/Info : UTF-8 Plain Text
Duration : 1 h 1 min
Bit rate : 25 b/s
Frame rate : 0.139 FPS
Count of elements : 513
Stream size : 11.7 KiB (0)
Language : Danish
Default : No
Forced : No

Text #7
ID : 9
Format : UTF-8
Codec ID : S_TEXT/UTF8
Codec ID/Info : UTF-8 Plain Text
Duration : 1 h 1 min
Bit rate : 27 b/s
Frame rate : 0.138 FPS
Count of elements : 512
Stream size : 12.3 KiB (0)
Language : German
Default : No
Forced : No

Text #8
ID : 10
Format : UTF-8
Codec ID : S_TEXT/UTF8
Codec ID/Info : UTF-8 Plain Text
Duration : 1 h 1 min
Bit rate : 43 b/s
Frame rate : 0.138 FPS
Count of elements : 509
Stream size : 19.6 KiB (0)
Language : Greek
Default : No
Forced : No

Text #9
ID : 11
Format : UTF-8
Codec ID : S_TEXT/UTF8
Codec ID/Info : UTF-8 Plain Text
Duration : 1 h 1 min
Bit rate : 24 b/s
Frame rate : 0.139 FPS
Count of elements : 513
Stream size : 11.2 KiB (0)
Title : Latin American
Language : Spanish
Default : No
Forced : No

Text #10
ID : 12
Format : UTF-8
Codec ID : S_TEXT/UTF8
Codec ID/Info : UTF-8 Plain Text
Duration : 1 h 1 min
Bit rate : 24 b/s
Frame rate : 0.139 FPS
Count of elements : 513
Stream size : 10.8 KiB (0)
Language : Spanish
Default : No
Forced : No

Text #11
ID : 13
Format : UTF-8
Codec ID : S_TEXT/UTF8
Codec ID/Info : UTF-8 Plain Text
Duration : 1 h 1 min
Bit rate : 21 b/s
Frame rate : 0.137 FPS
Count of elements : 506
Stream size : 9.68 KiB (0)
Language : Basque
Default : No
Forced : No

Text #12
ID : 14
Format : UTF-8
Codec ID : S_TEXT/UTF8
Codec ID/Info : UTF-8 Plain Text
Duration : 1 h 1 min
Bit rate : 25 b/s
Frame rate : 0.139 FPS
Count of elements : 513
Stream size : 11.6 KiB (0)
Language : Finnish
Default : No
Forced : No

Text #13
ID : 15
Format : UTF-8
Codec ID : S_TEXT/UTF8
Codec ID/Info : UTF-8 Plain Text
Duration : 1 h 1 min
Bit rate : 26 b/s
Frame rate : 0.135 FPS
Count of elements : 499
Stream size : 11.7 KiB (0)
Language : fil
Default : No
Forced : No

Text #14
ID : 16
Format : UTF-8
Codec ID : S_TEXT/UTF8
Codec ID/Info : UTF-8 Plain Text
Duration : 1 h 1 min
Bit rate : 27 b/s
Frame rate : 0.138 FPS
Count of elements : 510
Stream size : 12.5 KiB (0)
Language : French
Default : No
Forced : No

Text #15
ID : 17
Format : UTF-8
Codec ID : S_TEXT/UTF8
Codec ID/Info : UTF-8 Plain Text
Duration : 1 h 1 min
Bit rate : 23 b/s
Frame rate : 0.137 FPS
Count of elements : 507
Stream size : 10.5 KiB (0)
Language : Galician
Default : No
Forced : No

Text #16
ID : 18
Format : UTF-8
Codec ID : S_TEXT/UTF8
Codec ID/Info : UTF-8 Plain Text
Duration : 1 h 1 min
Bit rate : 38 b/s
Frame rate : 0.139 FPS
Count of elements : 515
Stream size : 17.4 KiB (0)
Language : Hebrew
Default : No
Forced : No

Text #17
ID : 19
Format : UTF-8
Codec ID : S_TEXT/UTF8
Codec ID/Info : UTF-8 Plain Text
Duration : 1 h 1 min
Bit rate : 22 b/s
Frame rate : 0.139 FPS
Count of elements : 514
Stream size : 10.4 KiB (0)
Language : Croatian
Default : No
Forced : No

Text #18
ID : 20
Format : UTF-8
Codec ID : S_TEXT/UTF8
Codec ID/Info : UTF-8 Plain Text
Duration : 1 h 1 min
Bit rate : 24 b/s
Frame rate : 0.139 FPS
Count of elements : 513
Stream size : 10.9 KiB (0)
Language : Hungarian
Default : No
Forced : No

Text #19
ID : 21
Format : UTF-8
Codec ID : S_TEXT/UTF8
Codec ID/Info : UTF-8 Plain Text
Duration : 1 h 1 min
Bit rate : 25 b/s
Frame rate : 0.139 FPS
Count of elements : 516
Stream size : 11.7 KiB (0)
Language : Indonesian
Default : No
Forced : No

Text #20
ID : 22
Format : UTF-8
Codec ID : S_TEXT/UTF8
Codec ID/Info : UTF-8 Plain Text
Duration : 1 h 1 min
Bit rate : 25 b/s
Frame rate : 0.139 FPS
Count of elements : 514
Stream size : 11.4 KiB (0)
Language : Italian
Default : No
Forced : No

Text #21
ID : 23
Format : UTF-8
Codec ID : S_TEXT/UTF8
Codec ID/Info : UTF-8 Plain Text
Duration : 1 h 1 min
Bit rate : 29 b/s
Frame rate : 0.145 FPS
Count of elements : 535
Stream size : 13.2 KiB (0)
Language : Japanese
Default : No
Forced : No

Text #22
ID : 24
Format : UTF-8
Codec ID : S_TEXT/UTF8
Codec ID/Info : UTF-8 Plain Text
Duration : 1 h 1 min
Bit rate : 32 b/s
Frame rate : 0.139 FPS
Count of elements : 515
Stream size : 14.5 KiB (0)
Language : Korean
Default : No
Forced : No

Text #23
ID : 25
Format : UTF-8
Codec ID : S_TEXT/UTF8
Codec ID/Info : UTF-8 Plain Text
Duration : 1 h 1 min
Bit rate : 25 b/s
Frame rate : 0.139 FPS
Count of elements : 515
Stream size : 11.6 KiB (0)
Language : Malay
Default : No
Forced : No

Text #24
ID : 26
Format : UTF-8
Codec ID : S_TEXT/UTF8
Codec ID/Info : UTF-8 Plain Text
Duration : 1 h 1 min
Bit rate : 25 b/s
Frame rate : 0.139 FPS
Count of elements : 514
Stream size : 11.6 KiB (0)
Language : Norwegian Bokmal
Default : No
Forced : No

Text #25
ID : 27
Format : UTF-8
Codec ID : S_TEXT/UTF8
Codec ID/Info : UTF-8 Plain Text
Duration : 1 h 1 min
Bit rate : 24 b/s
Frame rate : 0.139 FPS
Count of elements : 513
Stream size : 11.3 KiB (0)
Language : Dutch
Default : No
Forced : No

Text #26
ID : 28
Format : UTF-8
Codec ID : S_TEXT/UTF8
Codec ID/Info : UTF-8 Plain Text
Duration : 1 h 1 min
Bit rate : 24 b/s
Frame rate : 0.139 FPS
Count of elements : 513
Stream size : 11.0 KiB (0)
Language : Polish
Default : No
Forced : No

Text #27
ID : 29
Format : UTF-8
Codec ID : S_TEXT/UTF8
Codec ID/Info : UTF-8 Plain Text
Duration : 1 h 1 min
Bit rate : 25 b/s
Frame rate : 0.139 FPS
Count of elements : 514
Stream size : 11.5 KiB (0)
Title : Brazilian
Language : Portuguese
Default : No
Forced : No

Text #28
ID : 30
Format : UTF-8
Codec ID : S_TEXT/UTF8
Codec ID/Info : UTF-8 Plain Text
Duration : 1 h 1 min
Bit rate : 25 b/s
Frame rate : 0.139 FPS
Count of elements : 513
Stream size : 11.6 KiB (0)
Language : Portuguese
Default : No
Forced : No

Text #29
ID : 31
Format : UTF-8
Codec ID : S_TEXT/UTF8
Codec ID/Info : UTF-8 Plain Text
Duration : 1 h 1 min
Bit rate : 28 b/s
Frame rate : 0.139 FPS
Count of elements : 513
Stream size : 13.1 KiB (0)
Language : Romanian
Default : No
Forced : No

Text #30
ID : 32
Format : UTF-8
Codec ID : S_TEXT/UTF8
Codec ID/Info : UTF-8 Plain Text
Duration : 1 h 1 min
Bit rate : 41 b/s
Frame rate : 0.139 FPS
Count of elements : 513
Stream size : 18.6 KiB (0)
Language : Russian
Default : No
Forced : No

Text #31
ID : 33
Format : UTF-8
Codec ID : S_TEXT/UTF8
Codec ID/Info : UTF-8 Plain Text
Duration : 1 h 1 min
Bit rate : 24 b/s
Frame rate : 0.138 FPS
Count of elements : 512
Stream size : 11.2 KiB (0)
Language : Swedish
Default : No
Forced : No

Text #32
ID : 34
Format : UTF-8
Codec ID : S_TEXT/UTF8
Codec ID/Info : UTF-8 Plain Text
Duration : 1 h 1 min
Bit rate : 66 b/s
Frame rate : 0.141 FPS
Count of elements : 523
Stream size : 29.9 KiB (0)
Language : Thai
Default : No
Forced : No

Text #33
ID : 35
Format : UTF-8
Codec ID : S_TEXT/UTF8
Codec ID/Info : UTF-8 Plain Text
Duration : 1 h 1 min
Bit rate : 25 b/s
Frame rate : 0.139 FPS
Count of elements : 514
Stream size : 11.7 KiB (0)
Language : Turkish
Default : No
Forced : No

Text #34
ID : 36
Format : UTF-8
Codec ID : S_TEXT/UTF8
Codec ID/Info : UTF-8 Plain Text
Duration : 1 h 1 min
Bit rate : 38 b/s
Frame rate : 0.132 FPS
Count of elements : 486
Stream size : 17.4 KiB (0)
Language : Ukrainian
Default : No
Forced : No

Text #35
ID : 37
Format : UTF-8
Codec ID : S_TEXT/UTF8
Codec ID/Info : UTF-8 Plain Text
Duration : 1 h 1 min
Bit rate : 39 b/s
Frame rate : 0.140 FPS
Count of elements : 518
Stream size : 17.7 KiB (0)
Language : Vietnamese
Default : No
Forced : No

Text #36
ID : 38
Format : UTF-8
Codec ID : S_TEXT/UTF8
Codec ID/Info : UTF-8 Plain Text
Duration : 1 h 1 min
Bit rate : 28 b/s
Frame rate : 0.140 FPS
Count of elements : 518
Stream size : 12.8 KiB (0)
Title : Simplified
Language : Chinese
Default : No
Forced : No

Text #37
ID : 39
Format : UTF-8
Codec ID : S_TEXT/UTF8
Codec ID/Info : UTF-8 Plain Text
Duration : 1 h 1 min
Bit rate : 28 b/s
Frame rate : 0.140 FPS
Count of elements : 518
Stream size : 13.0 KiB (0)
Title : Traditional
Language : Chinese
Default : No
Forced : No
Kategoria:TV / Seriale
Ocena: N/A
Rozmiar:21.95 GiB
Dodane:15/07/2022 03:40:02
Uploader:Ishimura
Statystyki:Seedów: 45   Leecherów: 5
Ostatnie Uaktualnienie19/08/2022 22:51:25




Alpek25/07/2022 21.10.04
brak napisów pl


Wstecz

Copyright © 2009-2018 vTorrent.pl
Wszelkie uwagi odnośnie funkcjonowania strony prosimy kierować przez formularz kontaktowy

[ Script Execution time: 0.0517 sec. ] - [ GZIP: disabled ]