Witamy Guest (Zaloguj) Zarejestruj się Przypomnij hasło Torrenty Kontakt Napisy PL
Torrent Kategorie
 » WSZYSTKIE TORRENTY
FILMY :
 » RMVB9396  
 » (S)VCD564  
 » Divx / Xvid76477  
 » DVD-R2869  
 » x264 / HDTV7317  
 » 4K162  
 » 3D101  
 » TV / Seriale43509  
 » Anime1304  
GRY :
 » Gry PC18428  
 » Gry Konsole4136  
 » Poradniki, spolszczenia i inne2  
PROGRAMY :
 » Windows13508  
 » Linux / Mac807  
MUZYKA :
 » Albumy i składanki68331  
 » Koncerty184  
DOKUMENTY :
 » Książki13122  
 » Audiobooki7481  
 » Czasopisma2413  
 » Komiksy1126  
POZOSTAŁE :
 » Dla Dzieci2925  
 » Sport3052  
 » GSM / PDA1956  
 » Tapety2598  
 » Różne33  
EROTYKA :
 » Filmy XXX28439  
 » Zdjęcia XXX130  
 » Czasopisma XXX549  
 » Gry XXX122  
 » Hentai93  

Detale Torrenta
Nazwa plikuMecenas She-Hulk - She-Hulk Attorney at Law 2022 [S01E06] [10Bit HDR] [MULTi.2160p.WEB-DL.H265.AC.5.1] [Dubbing PL & Napisy PL]
Torrent:Mecenas She-Hulk - She-Hulk Attorney at Law 2022 [S01E06] [10Bit HDR] [MULTi.2160p.WEB-DL.H265.AC.5.1] [Dubbing PL & Napisy PL].torrent
Info Hash:bd013eb1319463e0b8af086c714138d503b4ccb6
Opis:

Info
twórca: Jessica Gao
gatunek: Akcja, Sci-Fi
produkcja: USA
świat: Marvel
premiera: 2022 (Światowa premiera na VOD)

Opis
She-Hulk, czyli Jennifer Walters, prawniczka, która pracuje w kancelarii prawnej w departamencie do spraw nadludzi, musi pogodzić
życie trzydziestokilkuletniej singielki ze swoim zielonym dwumetrowym hulkowym wcieleniem.

Obsada
Tatiana Maslany / She-Hulk (Jennifer Walters)
Mark Ruffalo / Hulk (Bruce Banner)
Jameela Jamil / Titania
Tim Roth / Abomination (Emil Blonsky)
Ginger Gonzaga / Nikki Ramos
Josh Segarra / Augustus Pugliese
Benedict Wong / Wong
Charlie Cox / Daredevil (Matt Murdock)

Dane Techniczne
Video
ID : 1
Format : HEVC
Format/Info : High Efficiency Video Coding
Format profile : Main 10L5High
HDR format : SMPTE ST 2086, HDR10 compatible
Codec ID : V_MPEGH/ISO/HEVC
Duration : 28 min 36 s
Bit rate : 13.3 Mb/s
Width : 3 840 pixels
Height : 2 160 pixels
Display aspect ratio : 16:9
Frame rate mode : Variable
Frame rate : 24.000 FPS
Color space : YUV
Chroma subsampling : 4:2:0
Bit depth : 10 bits
Bits/(PixelFrame) : 0.067
Stream size : 2.66 GiB (93)
Language : English
Default : Yes
Forced : No
Color range : Limited
Color primaries : BT.2020
Transfer characteristics : PQ
Matrix coefficients : BT.2020 non-constant
Mastering display color primaries : BT.2020
Mastering display luminance : min: 0.0000 cd/m2, max: 1000 cd/m2

Audio #1
ID : 2
Format : AC-3
Format/Info : Audio Coding 3
Commercial name : Dolby Digital
Codec ID : A_AC3
Duration : 28 min 36 s
Bit rate mode : Constant
Bit rate : 384 kb/s
Channel(s) : 6 channels
Channel layout : L R C LFE Ls Rs
Sampling rate : 48.0 kHz
Frame rate : 31.250 FPS (1536 SPF)
Compression mode : Lossy
Stream size : 78.6 MiB (3)
Title : Dubbing PL
Language : Polish
Service kind : Complete Main
Default : Yes
Forced : No

Audio #2
ID : 3
Format : AC-3
Format/Info : Audio Coding 3
Commercial name : Dolby Digital
Codec ID : A_AC3
Duration : 28 min 36 s
Bit rate mode : Constant
Bit rate : 640 kb/s
Channel(s) : 6 channels
Channel layout : L R C LFE Ls Rs
Sampling rate : 48.0 kHz
Frame rate : 31.250 FPS (1536 SPF)
Compression mode : Lossy
Stream size : 131 MiB (4)
Title : Original
Language : English
Service kind : Complete Main
Default : No
Forced : No

Text #1
ID : 4
Format : UTF-8
Codec ID : S_TEXT/UTF8
Codec ID/Info : UTF-8 Plain Text
Duration : 24 min 17 s
Bit rate : 2 b/s
Count of elements : 13
Stream size : 393 Bytes (0)
Title : Forced PL
Language : Polish
Default : Yes
Forced : Yes

Text #2
ID : 5
Format : UTF-8
Codec ID : S_TEXT/UTF8
Codec ID/Info : UTF-8 Plain Text
Duration : 28 min 28 s
Bit rate : 70 b/s
Count of elements : 401
Stream size : 14.7 KiB (0)
Title : Napisy PL
Language : Polish
Default : No
Forced : No
Kategoria:TV / Seriale
Ocena: N/A
Rozmiar:2.87 GiB
Dodane:23/09/2022 04:30:03
Uploader:Ishimura
Statystyki:Seedów: 7   Leecherów: 0
Ostatnie Uaktualnienie02/10/2022 11:38:54


Brak komentarzy...


Wstecz

Copyright © 2009-2018 vTorrent.pl
Wszelkie uwagi odnośnie funkcjonowania strony prosimy kierować przez formularz kontaktowy

[ Script Execution time: 0.0356 sec. ] - [ GZIP: disabled ]