Witamy Guest (Zaloguj) Zarejestruj się Przypomnij hasło Torrenty Kontakt Napisy PL
Torrent Kategorie
 » WSZYSTKIE TORRENTY
FILMY :
 » RMVB9396  
 » (S)VCD564  
 » Divx / Xvid77783  
 » DVD-R2869  
 » x264 / HDTV8045  
 » 4K178  
 » 3D101  
 » TV / Seriale44175  
 » Anime1304  
GRY :
 » Gry PC18742  
 » Gry Konsole4136  
 » Poradniki, spolszczenia i inne2  
PROGRAMY :
 » Windows14023  
 » Linux / Mac807  
MUZYKA :
 » Albumy i składanki68651  
 » Koncerty184  
DOKUMENTY :
 » Książki13206  
 » Audiobooki7483  
 » Czasopisma2442  
 » Komiksy1126  
POZOSTAŁE :
 » Dla Dzieci2937  
 » Sport3110  
 » GSM / PDA1956  
 » Tapety2598  
 » Różne34  
EROTYKA :
 » Filmy XXX28463  
 » Zdjęcia XXX132  
 » Czasopisma XXX549  
 » Gry XXX125  
 » Hentai93  

Detale Torrenta
Nazwa plikuBez pamięci / Memory 2022 [480p] [AMZN] [WEBRip] [AAC2.0] [H264] [Lektor PL]
Torrent:Bez pamięci / Memory 2022 [480p] [AMZN] [WEBRip] [AAC2.0] [H264] [Lektor PL].torrent
Info Hash:cc184fb7e392e57937b4409435fa8914734b3e6d
Opis:

Tytuł: Bez pamięci / Memory
Produkcja: USA
Gatunek: Thriller / Akcja / Kryminał
Premiera: 29 kwietnia 2022 (świat)
Reżyseria: Martin Campbell
Scenariusz: Dario Scardapane
Czas trwania: 1 godz. 54 min.


https://www.themoviedb.org/movie/818397-memory
https://www.filmweb.pl/film/Memory-2022-10001418
https://www.imdb.com/title/tt11827628/

Alex Lewis (Liam Neeson) jest doświadczonym zabójcą, znanym z dyskretnej precyzji. Pogrążony w moralnym bagnie Alex odmawia wykonania pracy, która narusza jego kodeks, i musi szybko wytropić i zabić ludzi, którzy go zatrudnili, zanim oni i agent FBI Vincent Serra (Guy Pearce) znajdą go pierwsi. Alex jest stworzony do zemsty, ale z pamięcią, która zaczyna słabnąć, jest zmuszony kwestionować każde swoje działanie, zacierając granicę między dobrem a złem.

Liam Neeson .... Alex Lewis
Monica Bellucci .... Davana Sealman
Guy Pearce .... Vincent Serra
Ray Fearon ....
Taj Atwal .... Linda Amistead
Harold Torres .... Hugo Marquez
Rebecca Calder .... Wendy Van Camp
Antonio Jaramillo .... Papa Leon


Video
ID : 1
Format : AVC
Format/Info : Advanced Video Codec
Format profile : [email&#160protected]
Format settings : CABAC / 4 Ref Frames
Format settings, CABAC : Yes
Format settings, Reference fra : 4 frames
Codec ID : avc1
Codec ID/Info : Advanced Video Coding
Duration : 1 h 53 min
Bit rate : 711 kb/s
Width : 960 pixels
Height : 400 pixels
Display aspect ratio : 2.40:1
Frame rate mode : Variable
Frame rate : 23.976 FPS
Minimum frame rate : 23.974 FPS
Maximum frame rate : 90 000.000 FPS
Color space : YUV
Chroma subsampling : 4:2:0
Bit depth : 8 bits
Scan type : Progressive
Bits/(PixelFrame) : 0.077
Stream size : 578 MiB (84)
Codec configuration box : avcC

Audio
ID : 2
Format : AAC LC
Format/Info : Advanced Audio Codec Low Complexity
Codec ID : mp4a-40-2
Duration : 1 h 53 min
Bit rate mode : Constant
Bit rate : 128 kb/s
Channel(s) : 2 channels
Channel layout : L R
Sampling rate : 48.0 kHz
Frame rate : 46.875 FPS (1024 SPF)
Compression mode : Lossy
Stream size : 104 MiB (15)
Language : Polish
Default : Yes
Alternate group : 1
Kategoria:x264 / HDTV
Ocena: N/A
Rozmiar:687.05 MiB
Dodane:29/09/2022 03:24:02
Uploader:Ishimura
Statystyki:Seedów: 0   Leecherów: 0
Ostatnie Uaktualnienie30/11/2022 16:33:19


Brak komentarzy...


Wstecz

Copyright © 2009-2018 vTorrent.pl
Wszelkie uwagi odnośnie funkcjonowania strony prosimy kierować przez formularz kontaktowy

[ Script Execution time: 0.0099 sec. ] - [ GZIP: disabled ]