Witamy Guest (Zaloguj) Zarejestruj się Przypomnij hasło Torrenty Kontakt Napisy PL
Torrent Kategorie
 » WSZYSTKIE TORRENTY
FILMY :
 » RMVB9396  
 » (S)VCD564  
 » Divx / Xvid77783  
 » DVD-R2869  
 » x264 / HDTV8045  
 » 4K178  
 » 3D101  
 » TV / Seriale44175  
 » Anime1304  
GRY :
 » Gry PC18742  
 » Gry Konsole4136  
 » Poradniki, spolszczenia i inne2  
PROGRAMY :
 » Windows14030  
 » Linux / Mac807  
MUZYKA :
 » Albumy i składanki68651  
 » Koncerty184  
DOKUMENTY :
 » Książki13206  
 » Audiobooki7483  
 » Czasopisma2442  
 » Komiksy1126  
POZOSTAŁE :
 » Dla Dzieci2937  
 » Sport3110  
 » GSM / PDA1956  
 » Tapety2598  
 » Różne34  
EROTYKA :
 » Filmy XXX28463  
 » Zdjęcia XXX132  
 » Czasopisma XXX549  
 » Gry XXX125  
 » Hentai93  

Detale Torrenta
Nazwa plikuHakerzy - Hackers (1995) [MULTI] [720p] [BluRay x264] [AC3 DTS] [Lektor PL]
Torrent:Hakerzy - Hackers (1995) [MULTI] [720p] [BluRay x264] [AC3 DTS] [Lektor PL].torrent
Info Hash:5d0298cf270204dae5ad4f13f683bea6496f236f
Opis:

...( Info )...

Produkcja: USA
Gatunek: Sensacyjny
Premiera: 15 września 1995 (Światowa premiera)
Reżyseria: Iain Softley
Scenariusz: Rafael Moreu

...( Opis )...

Młody haker Dade Murphy ma już na swoim koncie pewne osiągnięcia. W wieku 11 lat włamał się bowiem do komputerów na Wall Street, co skończyło się kłopotami z FBI. Po siedmiu latach Dade znowu uczestniczy w komputerowej aferze. Ale tym razem pomaga policji schwytać groźnego przestępcę...

...( Obsada )...

Jonny Lee Miller .... Dade Murphy / Crash Override / Zero Cool
Angelina Jolie .... Kate Libby / Dopalacz
Jesse Bradford .... Joey Pardella
Matthew Lillard .... Emmanuel Goldstein / Cereal Killer
Laurence Mason .... Paul Cook / Lord Nikon
Renoly Santiago .... Ramon Sanchez / Phantom Phreak
Fisher Stevens .... Eugene Belford / Tyfus / Pan Babbage
Alberta Watson .... Lauren Murphy

...( Dane Techniczne )...

Format : Matroska
Format version : Version 2
File size : 4.53 GiB
Duration : 1 h 45 min
Overall bit rate : 6 159 kb/s

Video
ID : 1
Format : AVC
Format/Info : Advanced Video Codec
Format profile : [email&#160protected]
Format settings : CABAC / 4 Ref Frames
Format settings, CABAC : Yes
Format settings, Reference frames : 4 frames
Codec ID : V_MPEG4/ISO/AVC
Duration : 1 h 45 min
Bit rate : 4 250 kb/s
Width : 1 280 pixels
Height : 544 pixels
Display aspect ratio : 2.35:1
Frame rate mode : Constant
Frame rate : 23.976 (24000/1001) FPS
Color space : YUV
Chroma subsampling : 4:2:0
Bit depth : 8 bits
Scan type : Progressive
Bits/(PixelFrame) : 0.255
Stream size : 3.13 GiB (69)

Language : English
Default : Yes
Forced : No

Audio #1
ID : 2
Format : AC-3
Format/Info : Audio Coding 3
Commercial name : Dolby Digital
Codec ID : A_AC3
Duration : 1 h 45 min
Bit rate mode : Constant
Bit rate : 384 kb/s
Channel(s) : 6 channels
Channel layout : L R C LFE Ls Rs
Sampling rate : 48.0 kHz
Frame rate : 31.250 FPS (1536 SPF)
Compression mode : Lossy
Stream size : 289 MiB (6)
Title : POL - DVDRip.XviD.AC3-azjatycki
Language : Polish
Service kind : Complete Main
Default : Yes
Forced : No

Audio #2
ID : 3
Format : DTS
Format/Info : Digital Theater Systems
Codec ID : A_DTS
Duration : 1 h 45 min
Bit rate mode : Constant
Bit rate : 1 509 kb/s
Channel(s) : 2 channels
Channel layout : L R
Sampling rate : 48.0 kHz
Frame rate : 93.750 FPS (512 SPF)
Bit depth : 24 bits
Compression mode : Lossy
Stream size : 1.11 GiB (25)
Language : English
Default : No
Forced : No

Text #1
ID : 4
Format : UTF-8
Codec ID : S_TEXT/UTF8
Codec ID/Info : UTF-8 Plain Text
Duration : 1 h 38 min
Bit rate : 38 b/s
Frame rate : 0.133 FPS
Count of elements : 789
Stream size : 27.8 KiB (0)
Language : Polish
Default : No
Forced : No

Text #2
ID : 5
Format : PGS
Muxing mode : zlib
Codec ID : S_HDMV/PGS
Codec ID/Info : Picture based subtitle format used on BDs/HD-DVDs
Duration : 1 h 41 min
Bit rate : 54.0 kb/s
Frame rate : 0.488 FPS
Count of elements : 2976
Stream size : 39.3 MiB (1)
Language : English
Default : No
Forced : No
Kategoria:x264 / HDTV
Ocena: N/A
Rozmiar:4.53 GiB
Dodane:29/09/2022 04:10:06
Uploader:Ishimura
Statystyki:Seedów: 0   Leecherów: 0
Ostatnie Uaktualnienie12/11/2022 01:01:14


Brak komentarzy...


Wstecz

Copyright © 2009-2018 vTorrent.pl
Wszelkie uwagi odnośnie funkcjonowania strony prosimy kierować przez formularz kontaktowy

[ Script Execution time: 0.0176 sec. ] - [ GZIP: disabled ]