Witamy Guest (Zaloguj) Zarejestruj się Przypomnij hasło Torrenty Kontakt Napisy PL
Torrent Kategorie
 » WSZYSTKIE TORRENTY
FILMY :
 » RMVB9396  
 » (S)VCD564  
 » Divx / Xvid77783  
 » DVD-R2869  
 » x264 / HDTV8045  
 » 4K178  
 » 3D101  
 » TV / Seriale44175  
 » Anime1304  
GRY :
 » Gry PC18742  
 » Gry Konsole4136  
 » Poradniki, spolszczenia i inne2  
PROGRAMY :
 » Windows14023  
 » Linux / Mac807  
MUZYKA :
 » Albumy i składanki68651  
 » Koncerty184  
DOKUMENTY :
 » Książki13206  
 » Audiobooki7483  
 » Czasopisma2442  
 » Komiksy1126  
POZOSTAŁE :
 » Dla Dzieci2937  
 » Sport3110  
 » GSM / PDA1956  
 » Tapety2598  
 » Różne34  
EROTYKA :
 » Filmy XXX28463  
 » Zdjęcia XXX132  
 » Czasopisma XXX549  
 » Gry XXX125  
 » Hentai93  

Detale Torrenta
Nazwa plikuPredator 1987 [2160p] [10bit] [WEB-DL] [H265] [SDR] [4 Lektorów PL]
Torrent:Predator 1987 [2160p] [10bit] [WEB-DL] [H265] [SDR] [4 Lektorów PL].torrent
Info Hash:a9ae6ebd3535bbba99320fb1bf4458a5fe54520f
Opis:

4 Lektorów do wyboru:

1.Maciej Gudowski
2.Janusz Kozioł (tvn)
3.Jarosław Łukomski (tv4)
4.Tomasz Knapik (vhs)

Tytuł: Predator
Produkcja: USA
Gatunek: Akcja / Sci-Fi
Premiera: 12 czerwca 1987 (świat)
Reżyseria: John McTiernan
Scenariusz: Jim Thomas, John Thomas
Czas trwania: 1 godz. 46 min.

http://www.filmweb.pl/Predator
https://www.imdb.com/title/tt0093773/

W południowoamerykańskiej dżungli spadł helikopter z amerykańskim ministrem. Zadanie odszukania go i uwolnienia z rąk partyzantów otrzymuje niewielki oddział, którym dowodzi major Dutch Schaeffer (Arnold Schwarzenegger). Dołącza do nich również agent CIA, Dillon (Carl Weathers). W dżungli okazuje się, że minister to blef, tak naprawdę CIA chce odnaleźć zaginionych doradców wojskowych, którzy przygotowywali operację contras. Atak na obóz partyzancki dokonany z zaskoczenia w brawurowym stylu nie przynosi uwolnienia poszukiwanych, lecz ujawnia straszne, obdarte ze skóry zwłoki. Okrucieństwo tej śmierci przeraża i szokuje nawet tak doświadczonych komandosów. Z wolna dżungla wokół nich zaczyna przypominać klatkę bez drzwi. Oto zaczyna ich atakować drapieżca z kosmosu.

Arnold Schwarzenegger .... Major Alan Dutch Schaeffer
Carl Weathers .... Major George Dillon
Elpidia Carrillo .... Anna
Bill Duke .... Sierżant Mac Eliot
Jesse Ventura .... Blain
Sonny Landham .... Billy Sole
Richard Chaves .... Poncho Ramirez
R.G. Armstrong .... Generał Phillips


Video
ID : 1
Format : HEVC
Format/Info : High Efficiency Video Coding
Format profile : Main [email&#160protected] at Main
Codec ID : V_MPEGH/ISO/HEVC
Duration : 1 h 46 min
Bit rate : 7 976 kb/s
Width : 3 840 pixels
Height : 2 064 pixels
Display aspect ratio : 1.85:1
Frame rate mode : Constant
Frame rate : 23.976 (24000/1001) FPS
Color space : YUV
Chroma subsampling : 4:2:0
Bit depth : 10 bits
Bits/(PixelFrame) : 0.042
Stream size : 5.94 GiB (94)

Audio #1
ID : 2
Format : MPEG Audio
Format version : Version 1
Format profile : Layer 3
Format settings : Joint stereo
Codec ID : A_MPEG/L3
Codec ID/Hint : MP3
Duration : 1 h 46 min
Bit rate mode : Constant
Bit rate : 128 kb/s
Channel(s) : 2 channels
Sampling rate : 48.0 kHz
Frame rate : 41.667 FPS (1152 SPF)
Compression mode : Lossy
Delay relative to video : 23 ms
Stream size : 97.6 MiB (2)
Title : Maciej Gudowski
Writing library : LAME3.100&#170&#170&#170&#170&#170&#170&#1707ge
Language : Polish
Default : Yes
Forced : No

Audio #2
ID : 3
Format : AC-3
Format/Info : Audio Coding 3
Commercial name : Dolby Digital
Codec ID : A_AC3
Duration : 1 h 46 min
Bit rate mode : Constant
Bit rate : 128 kb/s
Channel(s) : 2 channels
Channel layout : L R
Sampling rate : 48.0 kHz
Frame rate : 31.250 FPS (1536 SPF)
Compression mode : Lossy
Stream size : 97.6 MiB (2)
Title : Janusz Kozioł (tvn)
Service kind : Complete Main
Default : Yes
Forced : No

Audio #3
ID : 4
Format : AC-3
Format/Info : Audio Coding 3
Commercial name : Dolby Digital
Codec ID : A_AC3
Duration : 1 h 46 min
Bit rate mode : Constant
Bit rate : 128 kb/s
Channel(s) : 2 channels
Channel layout : L R
Sampling rate : 48.0 kHz
Frame rate : 31.250 FPS (1536 SPF)
Compression mode : Lossy
Stream size : 97.6 MiB (2)
Title : Jarosław Łukomski (tv4)
Service kind : Complete Main
Default : Yes
Forced : No

Audio #4
ID : 5
Format : AC-3
Format/Info : Audio Coding 3
Commercial name : Dolby Digital
Codec ID : A_AC3
Duration : 1 h 46 min
Bit rate mode : Constant
Bit rate : 128 kb/s
Channel(s) : 2 channels
Channel layout : L R
Sampling rate : 48.0 kHz
Frame rate : 31.250 FPS (1536 SPF)
Compression mode : Lossy
Stream size : 97.6 MiB (2)
Title : Tomasz Knapik (vhs)
Kategoria:4K
Ocena: N/A
Rozmiar:6.32 GiB
Dodane:29/09/2022 04:12:02
Uploader:Ishimura
Statystyki:Seedów: 2   Leecherów: 0
Ostatnie Uaktualnienie29/11/2022 17:58:27


Brak komentarzy...


Wstecz

Copyright © 2009-2018 vTorrent.pl
Wszelkie uwagi odnośnie funkcjonowania strony prosimy kierować przez formularz kontaktowy

[ Script Execution time: 0.0212 sec. ] - [ GZIP: disabled ]