Witamy Guest (Zaloguj) Zarejestruj się Przypomnij hasło Torrenty Kontakt Napisy PL
Torrent Kategorie
 » WSZYSTKIE TORRENTY
FILMY :
 » RMVB9396  
 » (S)VCD564  
 » Divx / Xvid77783  
 » DVD-R2869  
 » x264 / HDTV8045  
 » 4K178  
 » 3D101  
 » TV / Seriale44175  
 » Anime1304  
GRY :
 » Gry PC18742  
 » Gry Konsole4136  
 » Poradniki, spolszczenia i inne2  
PROGRAMY :
 » Windows14030  
 » Linux / Mac807  
MUZYKA :
 » Albumy i składanki68651  
 » Koncerty184  
DOKUMENTY :
 » Książki13206  
 » Audiobooki7483  
 » Czasopisma2442  
 » Komiksy1126  
POZOSTAŁE :
 » Dla Dzieci2937  
 » Sport3110  
 » GSM / PDA1956  
 » Tapety2598  
 » Różne34  
EROTYKA :
 » Filmy XXX28463  
 » Zdjęcia XXX132  
 » Czasopisma XXX549  
 » Gry XXX125  
 » Hentai93  

Detale Torrenta
Nazwa plikuDennis rozrabiaka - Dennis the Menace (1993) [720p] [WEB-DL.H264] [DD5.1] [AC3] [Lektor PL]
Torrent:Dennis rozrabiaka - Dennis the Menace (1993) [720p] [WEB-DL.H264] [DD5.1] [AC3] [Lektor PL].torrent
Info Hash:ac8f97c74134381654b02bab404621965e1664e7
Opis:

...( Info )...

Produkcja: USA
Gatunek: Familijny, Komedia
Premiera: 24 czerwca 1993 (Światowa premiera)
Reżyseria: Nick Castle
Scenariusz: John Hughes

...( Opis )...

Dennis (Mason Gamble) jest małym łobuziakiem, który lubi robić psoty i wymyśla sprytne kawały ku utrapieniu rodziców i sąsiadów. Pewnego razu jego mama, Alice (Lea Thompson), decyduje się podjąć pracę, i pojawia się kłopot z opieką nad Dennisem. Ostatecznie opiekę nad nim obejmuje małżeństwo Wilsonów, starszych, spokojnych i bezdzietnych sąsiadów. Również im Dennis szybko daje się we znaki do czasu, gdy do ich domu wkrada się włamywacz Sam (Christopher Lloyd) i zagarnia kolekcję monet pana Wilsona (Walter Matthau). Dennis postanawia odebrać skradzione monety i ukarać złodzieja.

...( Obsada )...

Walter Matthau .... George Wilson
Mason Gamble .... Dennis Mitchell
Joan Plowright .... Martha Wilson
Christopher Lloyd .... Sprężynowy Sam
Lea Thompson .... Alice Mitchell
Robert Stanton .... Henry Mitchell
Amy Sakasitz .... Margaret Wade
Kellen Hathaway .... Joey

...( Dane Techniczne )...

Format : Matroska
Format version : Version 4
File size : 3.10 GiB
Duration : 1 h 35 min
Overall bit rate : 4 622 kb/s

Video
ID : 1
Format : AVC
Format/Info : Advanced Video Codec
Format profile : [email&#160protected]
Format settings : 2 Ref Frames
Format settings, CABAC : No
Format settings, Reference frames : 2 frames
Codec ID : V_MPEG4/ISO/AVC
Duration : 1 h 35 min
Bit rate : 4 172 kb/s
Width : 1 276 pixels
Height : 720 pixels
Display aspect ratio : 16:9
Frame rate mode : Constant
Frame rate : 23.976 (23976/1000) FPS
Color space : YUV
Chroma subsampling : 4:2:0
Bit depth : 8 bits
Scan type : Progressive
Bits/(PixelFrame) : 0.189
Stream size : 2.80 GiB (90)
Language : English
Default : Yes
Forced : No
Color range : Limited
Color primaries : BT.709
Transfer characteristics : BT.709
Matrix coefficients : BT.709

Audio
ID : 2
Format : AC-3
Format/Info : Audio Coding 3
Commercial name : Dolby Digital
Codec ID : A_AC3
Duration : 1 h 35 min
Bit rate mode : Constant
Bit rate : 448 kb/s
Channel(s) : 6 channels
Channel layout : L R C LFE Ls Rs
Sampling rate : 48.0 kHz
Frame rate : 31.250 FPS (1536 SPF)
Compression mode : Lossy
Stream size : 308 MiB (10)
Language : Polish
Service kind : Complete Main
Default : Yes
Forced : No
Kategoria:x264 / HDTV
Ocena: N/A
Rozmiar:3.10 GiB
Dodane:03/10/2022 04:10:05
Uploader:Ishimura
Statystyki:Seedów: 1   Leecherów: 0
Ostatnie Uaktualnienie08/10/2022 17:53:13


Brak komentarzy...


Wstecz

Copyright © 2009-2018 vTorrent.pl
Wszelkie uwagi odnośnie funkcjonowania strony prosimy kierować przez formularz kontaktowy

[ Script Execution time: 0.0122 sec. ] - [ GZIP: disabled ]