Witamy Guest (Zaloguj) Zarejestruj się Przypomnij hasło Torrenty Kontakt Napisy PL
Torrent Kategorie
 » WSZYSTKIE TORRENTY
FILMY :
 » RMVB9396  
 » (S)VCD564  
 » Divx / Xvid77783  
 » DVD-R2869  
 » x264 / HDTV8045  
 » 4K178  
 » 3D101  
 » TV / Seriale44175  
 » Anime1304  
GRY :
 » Gry PC18742  
 » Gry Konsole4136  
 » Poradniki, spolszczenia i inne2  
PROGRAMY :
 » Windows14023  
 » Linux / Mac807  
MUZYKA :
 » Albumy i składanki68651  
 » Koncerty184  
DOKUMENTY :
 » Książki13206  
 » Audiobooki7483  
 » Czasopisma2442  
 » Komiksy1126  
POZOSTAŁE :
 » Dla Dzieci2937  
 » Sport3110  
 » GSM / PDA1956  
 » Tapety2598  
 » Różne34  
EROTYKA :
 » Filmy XXX28463  
 » Zdjęcia XXX132  
 » Czasopisma XXX549  
 » Gry XXX125  
 » Hentai93  

Detale Torrenta
Nazwa plikuŁowca czarownic The.Last.Witch.Hunter.2015 (2160p) [WEB-DL].[H265].[10bit].[HDR]
Torrent:Łowca czarownic The.Last.Witch.Hunter.2015 (2160p) [WEB-DL].[H265].[10bit].[HDR].torrent
Info Hash:684fdeb356d2a9e8b0926bec5322c59631b6d629
Opis:

...( Info )...

Produkcja: USA, Chiny, Kanada
Gatunek: Fantasy, Przygodowy
Premiera: 13 października 2015 (Światowa premiera)
Reżyseria: Breck Eisner
Scenariusz: Cory Goodman, Matt Sazama

...( Opis )...

Pięćset lat temu wybuchła wyniszczająca wojna między ludźmi, a zastępami czarownic pragnącymi pogrążyć Ziemię w chaosie. Dzięki męstwu i poświęceniu łowców czarownic udało się ochronić świat przed zagładą. Jeden z nich - Kaulder (Vin Diesel) uśmiercił ich Królową, która umierając rzuciła na niego klątwę nieśmiertelności. Dziś Kaulder wciąż błąka się po świecie poszukując renegatów, którym udaje się przedostać z mrocznych odmętów w świat ludzi. Jego jedynymi sprzymierzeńcami są proboszcz nowojorskiej świątyni oraz młoda czarownica o dobrym sercu Chloe. Ich pomoc może jednak nie wystarczyć, gdy okaże się, że światu grozi powrót Królowej, którą wskrzesić pragnie Belial - potężna, zbuntowana czarownica śniąca o panowaniu zła.

...( Obsada )...

Vin Diesel .... Kaulder
Rose Leslie .... Chloe
Elijah Wood .... 37 Dolan
Ólafur Darri Ólafsson .... Belial
Rena Owen .... Glaeser
Julie Engelbrecht .... Królowa czarownic
Michael Caine .... 36 Dolan
Joseph Gilgun .... Ellic

...( Dane Techniczne )...

Video
ID : 1
Format : HEVC
Format/Info : High Efficiency Video Coding
Format profile : Main [email&#160protected]Main
Codec ID : V_MPEGH/ISO/HEVC
Duration : 1 h 46 min
Bit rate : 6 000 kb/s
Width : 3 840 pixels
Height : 1 584 pixels
Display aspect ratio : 2.40:1
Frame rate mode : Constant
Frame rate : 23.976 (24000/1001) FPS
Color space : YUV
Chroma subsampling : 4:2:0
Bit depth : 10 bits
Bits/(PixelFrame) : 0.041
Stream size : 4.47 GiB (98)

Audio
ID : 2
Format : MPEG Audio
Format version : Version 1
Format profile : Layer 3
Format settings : Joint stereo / MS Stereo
Codec ID : A_MPEG/L3
Codec ID/Hint : MP3
Duration : 1 h 46 min
Bit rate mode : Constant
Bit rate : 128 kb/s
Channel(s) : 2 channels
Sampling rate : 44.1 kHz
Frame rate : 38.281 FPS (1152 SPF)
Compression mode : Lossy
Stream size : 97.6 MiB (2)
Kategoria:4K
Ocena: N/A
Rozmiar:4.56 GiB
Dodane:04/10/2022 04:10:06
Uploader:Ishimura
Statystyki:Seedów: 2   Leecherów: 0
Ostatnie Uaktualnienie30/11/2022 00:42:44


Brak komentarzy...


Wstecz

Copyright © 2009-2018 vTorrent.pl
Wszelkie uwagi odnośnie funkcjonowania strony prosimy kierować przez formularz kontaktowy

[ Script Execution time: 0.0099 sec. ] - [ GZIP: disabled ]