Witamy Guest (Zaloguj) Zarejestruj się Przypomnij hasło Torrenty Kontakt Napisy PL
Torrent Kategorie
 » WSZYSTKIE TORRENTY
FILMY :
 » RMVB9396  
 » (S)VCD564  
 » Divx / Xvid77772  
 » DVD-R2869  
 » x264 / HDTV8019  
 » 4K178  
 » 3D101  
 » TV / Seriale44165  
 » Anime1304  
GRY :
 » Gry PC18738  
 » Gry Konsole4136  
 » Poradniki, spolszczenia i inne2  
PROGRAMY :
 » Windows14012  
 » Linux / Mac807  
MUZYKA :
 » Albumy i składanki68615  
 » Koncerty184  
DOKUMENTY :
 » Książki13206  
 » Audiobooki7483  
 » Czasopisma2442  
 » Komiksy1126  
POZOSTAŁE :
 » Dla Dzieci2937  
 » Sport3109  
 » GSM / PDA1956  
 » Tapety2598  
 » Różne34  
EROTYKA :
 » Filmy XXX28463  
 » Zdjęcia XXX132  
 » Czasopisma XXX549  
 » Gry XXX125  
 » Hentai93  

Detale Torrenta
Nazwa plikuConan BarbarzyńcaConan the Barbarian (2011) (2160p) [WEB-DL].[H265].[10bit].[SDR] [marcin0313][MP3] [Lektor PL]
Torrent:Conan BarbarzyńcaConan the Barbarian (2011) (2160p) [WEB-DL].[H265].[10bit].[SDR] [marcin0313][MP3] [Lektor PL].torrent
Info Hash:aa7a6936d7a9d2f9ceecae11a53ea82fccd8472d
Opis:

...( Info )...

Produkcja: USA
Gatunek: Fantasy, Przygodowy
Premiera: 11 sierpnia 2011 (świat)
Reżyseria: Marcus Nispel
Scenariusz: Thomas Dean Donnelly, Joshua Oppenheimer

...( Opis )...

Ekranizacja przygód jednego z najsłynniejszych herosów w historii kina i literatury, tym razem zrealizowana w technologii 3D Przesiąknięty klimatem magii i tajemnicy, obfitujący w spektakularne sceny walk i efekty specjalne, nowy Conan Barbarzyńca nie jest kontynuacją cyklu sprzed lat, lecz zupełnie nowym otwarciem opowieści o przygodach herosa z Cymerii. Conan od najmłodszych lat przejawia talent wojownika. Jednak nim zdąży dorosnąć, w jego rodzinnych stronach rozgorzeje krwawa wojna. Khalar Zym potężny władca i czarnoksiężnik zgładzi całe plemię małego Conana. Prawie całe na swoje nieszczęście nie zdoła schwytać walecznego chłopca. Mijają lata. Conan jest już dojrzałym wojownikiem, który nie ma sobie równych. Od lat realizuje krwawy plan zemsty podąża tropem Khalara i likwiduje bez litości kolejnych jego popleczników. Pewnego dnia przyjdzie mu stoczyć walkę, na którą czekał całe życie. Nim jednak do niej dojdzie, musi ocalić z jego rąk dziedziczkę odwiecznej mocy władców Acheronu. Jeśli Khalarowi uda się złożyć rytualną ofiarę z jej życia, posiądzie drzemiącą w niej moc i stanie się niepokonany.

...( Obsada )...

Jason Momoa .... Conan
Stephen Lang .... Khalar Zym
Rachel Nichols .... Tamara
Ron Perlman .... Corin
Rose McGowan .... Marique
Bob Sapp .... Ukafa
Leo Howard .... Młody Conan
Steven ODonnell .... Lucius

...( Dane Techniczne )...

Video
ID : 1
Format : HEVC
Format/Info : High Efficiency Video Coding
Format profile : Main [email&#160protected]Main
Codec ID : V_MPEGH/ISO/HEVC
Duration : 1 h 52 min
Bit rate : 5 590 kb/s
Width : 3 840 pixels
Height : 1 600 pixels
Display aspect ratio : 2.40:1
Frame rate mode : Constant
Frame rate : 23.976 (24000/1001) FPS
Color space : YUV
Chroma subsampling : 4:2:0
Bit depth : 10 bits
Bits/(PixelFrame) : 0.038
Stream size : 4.39 GiB (98)

Audio
ID : 2
Format : MPEG Audio
Format version : Version 1
Format profile : Layer 3
Format settings : Joint stereo / MS Stereo
Codec ID : A_MPEG/L3
Codec ID/Hint : MP3
Duration : 1 h 52 min
Bit rate mode : Constant
Bit rate : 128 kb/s
Channel(s) : 2 channels
Sampling rate : 48.0 kHz
Frame rate : 41.667 FPS (1152 SPF)
Compression mode : Lossy
Stream size : 103 MiB (2)
Title : Stereo
Kategoria:4K
Ocena: N/A
Rozmiar:4.50 GiB
Dodane:05/10/2022 03:52:02
Uploader:Ishimura
Statystyki:Seedów: 0   Leecherów: 0
Ostatnie Uaktualnienie30/11/2022 10:02:37


Brak komentarzy...


Wstecz

Copyright © 2009-2018 vTorrent.pl
Wszelkie uwagi odnośnie funkcjonowania strony prosimy kierować przez formularz kontaktowy

[ Script Execution time: 0.0123 sec. ] - [ GZIP: disabled ]