Witamy Guest (Zaloguj) Zarejestruj się Przypomnij hasło Torrenty Kontakt Napisy PL
Torrent Kategorie
 » WSZYSTKIE TORRENTY
FILMY :
 » RMVB9396  
 » (S)VCD564  
 » Divx / Xvid77700  
 » DVD-R2869  
 » x264 / HDTV7944  
 » 4K172  
 » 3D101  
 » TV / Seriale44088  
 » Anime1304  
GRY :
 » Gry PC18719  
 » Gry Konsole4136  
 » Poradniki, spolszczenia i inne2  
PROGRAMY :
 » Windows13989  
 » Linux / Mac807  
MUZYKA :
 » Albumy i składanki68556  
 » Koncerty184  
DOKUMENTY :
 » Książki13182  
 » Audiobooki7483  
 » Czasopisma2435  
 » Komiksy1126  
POZOSTAŁE :
 » Dla Dzieci2937  
 » Sport3097  
 » GSM / PDA1956  
 » Tapety2598  
 » Różne34  
EROTYKA :
 » Filmy XXX28460  
 » Zdjęcia XXX132  
 » Czasopisma XXX549  
 » Gry XXX125  
 » Hentai93  

Detale Torrenta
Nazwa plikuSłoneczny Patrol - Baywatch [S02E05-06.1080p.1989r][MKV.AMZN.WEB-DL][PL/ENG]
Torrent:Słoneczny Patrol - Baywatch [S02E05-06.1080p.1989r][MKV.AMZN.WEB-DL][PL/ENG].torrent
Info Hash:580955ce328995101b2ce2a5b74845bcc4ab5d05
Opis:

...( Info )...

twórcy: Michael Berk, Gregory J. Bonann
gatunek: Dramat
produkcja: USA
premiera: 22 września 1989 (Światowa premiera)
sezon: 2
ilość odcinków: 22

...( Opis )...

Ratownicy patrolują plaże w Los Angeles, dbając o bezpieczeństwo turystów.

...( Obsada )...

David Hasselhoff
Erika Eleniak
Gregory Alan Williams
Billy Warlock
Monte Markham

...( Dane Techniczne )...

Format : Matroska
Format version : Version 4
File size : 4.70 GiB
Duration : 48 min 42 s
Overall bit rate : 13.8 Mb/s
Encoded date : UTC 2022-11-05 05:12:39
Writing application : mkvmerge v6.0.0 (Coming Up For Air) built on Jan 20 2013 09:52:00
Writing library : libebml v1.3.0 + libmatroska v1.4.0

Video
ID : 1
Format : AVC
Format/Info : Advanced Video Codec
Format profile : [email&#160protected]
Format settings : CABAC / 4 Ref Frames
Format settings, CABAC : Yes
Format settings, Reference frames : 4 frames
Codec ID : V_MPEG4/ISO/AVC
Duration : 48 min 42 s
Bit rate : 13.1 Mb/s
Width : 1 920 pixels
Height : 1 080 pixels
Display aspect ratio : 16:9
Frame rate mode : Constant
Frame rate : 23.976 (24000/1001) FPS
Color space : YUV
Chroma subsampling : 4:2:0
Bit depth : 8 bits
Scan type : Progressive
Bits/(PixelFrame) : 0.264
Stream size : 4.47 GiB (95)
Default : Yes
Forced : No
Color range : Limited
Color primaries : BT.709
Transfer characteristics : BT.709
Matrix coefficients : BT.709

Audio #1
ID : 2
Format : E-AC-3
Format/Info : Enhanced AC-3
Commercial name : Dolby Digital Plus
Codec ID : A_EAC3
Duration : 48 min 42 s
Bit rate mode : Constant
Bit rate : 224 kb/s
Channel(s) : 2 channels
Channel layout : L R
Sampling rate : 48.0 kHz
Frame rate : 31.250 FPS (1536 SPF)
Compression mode : Lossy
Stream size : 78.0 MiB (2)
Language : English
Service kind : Complete Main
Default : No
Forced : No

Audio #2
ID : 4
Format : AC-3
Format/Info : Audio Coding 3
Commercial name : Dolby Digital
Codec ID : A_AC3
Duration : 48 min 42 s
Bit rate mode : Constant
Bit rate : 192 kb/s
Channel(s) : 2 channels
Channel layout : L R
Sampling rate : 48.0 kHz
Frame rate : 31.250 FPS (1536 SPF)
Compression mode : Lossy
Delay relative to video : 400 ms
Stream size : 66.9 MiB (1)
Language : Polish
Service kind : Complete Main
Default : Yes
Forced : No

Text
ID : 3
Format : UTF-8
Codec ID : S_TEXT/UTF8
Codec ID/Info : UTF-8 Plain Text
Title : SDH
Language : English
Default : No
Kategoria:TV / Seriale
Ocena: N/A
Rozmiar:8.82 GiB
Dodane:25/11/2022 04:10:06
Uploader:Ishimura
Statystyki:Seedów: 0   Leecherów: 0
Ostatnie Uaktualnienie26/11/2022 21:54:52


Brak komentarzy...


Wstecz

Copyright © 2009-2018 vTorrent.pl
Wszelkie uwagi odnośnie funkcjonowania strony prosimy kierować przez formularz kontaktowy

[ Script Execution time: 0.0103 sec. ] - [ GZIP: disabled ]