Witamy Guest (Zaloguj) Zarejestruj się Przypomnij hasło Torrenty Kontakt Napisy PL
Torrent Kategorie
 » WSZYSTKIE TORRENTY
FILMY :
 » RMVB9396  
 » (S)VCD564  
 » Divx / Xvid78365  
 » DVD-R2872  
 » x264 / HDTV8992  
 » 4K193  
 » 3D101  
 » TV / Seriale44618  
 » Anime1308  
GRY :
 » Gry PC19099  
 » Gry Konsole4136  
 » Poradniki, spolszczenia i inne2  
PROGRAMY :
 » Windows14216  
 » Linux / Mac807  
MUZYKA :
 » Albumy i składanki69080  
 » Koncerty186  
DOKUMENTY :
 » Książki13426  
 » Audiobooki7488  
 » Czasopisma2469  
 » Komiksy1128  
POZOSTAŁE :
 » Dla Dzieci2943  
 » Sport3142  
 » GSM / PDA1957  
 » Tapety2598  
 » Różne34  
EROTYKA :
 » Filmy XXX28464  
 » Zdjęcia XXX133  
 » Czasopisma XXX549  
 » Gry XXX127  
 » Hentai93  



Detale Torrenta
Nazwa plikuPrzerażacze - The Frighteners (1996) [THEATRICAL.CUT][2160p].[H265].[10bit] [HDR][AC3-5.1] [Lektor PL]
Torrent:Przerażacze - The Frighteners (1996) [THEATRICAL.CUT][2160p].[H265].[10bit] [HDR][AC3-5.1] [Lektor PL].torrent
Info Hash:dbde6df52b1477c0a436da61d9e6d7522c9ce3d4
Opis:

...( Info )...

Produkcja: USA, Nowa Zelandia
Gatunek: Horror, Komedia
Premiera: 17 lipca 1996 (Światowa premiera)
Reżyseria: Peter Jackson
Scenariusz: Peter Jackson, Fran Walsh

...( Opis )...

Miasteczko Fairwater zostaje zaatakowane przez tajemniczą siłę. Ponad 30 osób umiera na niespodziewane zawały serca. Okazuje się, że przyczyną tego są upiory, siejące grozę i śmierć. Do walki z nimi staje detektyw-parapsycholog Frank Bannister, który zarabia na życie jako pogromca duchów. Jego klientami zostaje młode małżeństwo, w których mieszkaniu straszy. Mężczyzna wkrótce umiera, a jego żona prosi Franka, aby pomógł jej się z nim skontaktować. Działalnością Bannistera zaczyna interesować się FBI.

...( Obsada )...

Michael J. Fox .... Frank Bannister
Trini Alvarado .... Lucy Lynskey
Peter Dobson .... Ray Lynskey
John Astin .... Sędzia
Jeffrey Combs .... Milton Dammers
Dee Wallace .... Patricia Bradley
Jake Busey .... Johnny Bartlett
Chi McBride .... Cyrus

...( Dane Techniczne )...

Video
ID : 1
Format : HEVC
Format/Info : High Efficiency Video Coding
Format profile : Main 10L5Main
HDR format : Dolby Vision, Version 1.0, dvhe.07.06, BL+EL+RPU, Blu-ray compatible
Codec ID : V_MPEGH/ISO/HEVC
Duration : 1 h 50 min
Bit rate : 5 830 kb/s
Width : 3 840 pixels
Height : 2 160 pixels
Display aspect ratio : 16:9
Frame rate mode : Constant
Frame rate : 23.976 (24000/1001) FPS
Color space : YUV
Chroma subsampling : 4:2:0
Bit depth : 10 bits
Bits/(PixelFrame) : 0.029
Stream size : 4.48 GiB (94)

Audio
ID : 2
Format : E-AC-3
Format/Info : Enhanced AC-3
Commercial name : Dolby Digital Plus
Codec ID : A_EAC3
Duration : 1 h 49 min
Bit rate mode : Constant
Bit rate : 384 kb/s
Channel(s) : 6 channels
Channel layout : L R C LFE Ls Rs
Sampling rate : 48.0 kHz
Frame rate : 31.250 FPS (1536 SPF)
Bit depth : 32 bits
Compression mode : Lossy
Delay relative to video : 3 ms
Stream size : 301 MiB (6)
Kategoria:4K
Ocena: N/A
Rozmiar:4.78 GiB
Dodane:25/01/2023 04:08:03
Uploader:Ishimura
Statystyki:Seedów: 0   Leecherów: 0
Ostatnie Uaktualnienie26/01/2023 08:59:15



Brak komentarzy...


Wstecz

Copyright © 2009-2018 vTorrent.pl
Wszelkie uwagi odnośnie funkcjonowania strony prosimy kierować przez formularz kontaktowy

[ Script Execution time: 0.0096 sec. ] - [ GZIP: disabled ]