Witamy Guest (Zaloguj) Zarejestruj się Przypomnij hasło Torrenty Kontakt Napisy PL
Torrent Kategorie
 » WSZYSTKIE TORRENTY
FILMY :
 » RMVB9396  
 » (S)VCD564  
 » Divx / Xvid78365  
 » DVD-R2872  
 » x264 / HDTV8992  
 » 4K193  
 » 3D101  
 » TV / Seriale44618  
 » Anime1308  
GRY :
 » Gry PC19099  
 » Gry Konsole4136  
 » Poradniki, spolszczenia i inne2  
PROGRAMY :
 » Windows14216  
 » Linux / Mac807  
MUZYKA :
 » Albumy i składanki69080  
 » Koncerty186  
DOKUMENTY :
 » Książki13426  
 » Audiobooki7488  
 » Czasopisma2469  
 » Komiksy1128  
POZOSTAŁE :
 » Dla Dzieci2943  
 » Sport3142  
 » GSM / PDA1957  
 » Tapety2598  
 » Różne34  
EROTYKA :
 » Filmy XXX28464  
 » Zdjęcia XXX133  
 » Czasopisma XXX549  
 » Gry XXX127  
 » Hentai93  



Detale Torrenta
Nazwa plikuFauda 2023 [S04] [1080p.NF.WEBRip.DDP2.0.x264] [Napisy PL]
Torrent:Fauda 2023 [S04] [1080p.NF.WEBRip.DDP2.0.x264] [Napisy PL].torrent
Info Hash:7d0b4453ed85c07caa8177ad2f5ceb14852ab539
Opis:

...( Info )...

Produkcja: Izrael
Gatunek: Thriller, Polityczny
Twórca: Avi Issacharoff
Platforma: Netflix
Premiera: 2015-2023

...( Opis )...

Wyśmienity izraelski agent wraca do czynnej służby, by dopaść palestyńskiego bojownika, który teoretycznie miał już nie żyć. Rozpoczyna się chaotyczne polowanie.

...( Obsada )...

Lior Raz .... Doron Kavillio
Hisham Suliman .... Taofik Hamed Abu Ahmad
Shadi Mari .... Walid El Abed
Latitia Edo .... Dr Shirin El Abed
Itzik Cohen .... Gabi Kapitan Eyov
Yuval Segal .... Mickey Moreno
Neta Garty .... Gali Kavillio
Hanan Hillo .... Nasrin Hamed

...( Dane Techniczne )...

Video
ID : 1
Format : AVC
Format/Info : Advanced Video Codec
Format profile : MainL4
Format settings : CABAC / 3 Ref Frames
Format settings, CABAC : Yes
Format settings, Reference frames : 3 frames
Codec ID : V_MPEG4/ISO/AVC
Duration : 52 min 54 s
Bit rate mode : Variable
Bit rate : 5 000 kb/s
Maximum bit rate : 7 500 kb/s
Width : 1 920 pixels
Height : 1 080 pixels
Display aspect ratio : 16:9
Frame rate mode : Constant
Frame rate : 25.000 FPS
Color space : YUV
Chroma subsampling : 4:2:0
Bit depth : 8 bits
Scan type : Progressive
Bits/(PixelFrame) : 0.096
Stream size : 1.80 GiB (79)
Writing library : x264 core 148 r2727 7d026e8
Encoding settings : cabac=1 / ref=3 / deblock=1:0:0 / analyse=0x1:0x111 / me=umh / subme=10 / psy=1 / psy_rd=1.00:0.00 / mixed_ref=1 / me_range=24 / chroma_me=1 / trellis=2 / 8x8dct=0 / cqm=0 / deadzone=21,11 / fast_pskip=1 / chroma_qp_offset=-2 / threads=8 / lookahead_threads=1 / sliced_threads=0 / nr=0 / decimate=1 / interlaced=0 / bluray_compat=0 / stitchable=1 / constrained_intra=0 / bframes=2 / b_pyramid=0 / b_adapt=2 / b_bias=0 / direct=3 / weightb=1 / open_gop=0 / weightp=2 / keyint=50 / keyint_min=26 / scenecut=0 / intra_refresh=0 / rc_lookahead=50 / rc=2pass / mbtree=1 / bitrate=5000 / ratetol=1.0 / qcomp=0.50 / qpmin=6 / qpmax=51 / qpstep=4 / cplxblur=20.0 / qblur=0.5 / vbv_maxrate=7500 / vbv_bufsize=10000 / nal_hrd=vbr / filler=0 / ip_ratio=1.40 / aq=1:1.00
Language : Hebrew
Default : Yes
Forced : No

Audio #1
ID : 2
Format : E-AC-3
Format/Info : Enhanced AC-3
Commercial name : Dolby Digital Plus
Codec ID : A_EAC3
Duration : 52 min 54 s
Bit rate mode : Constant
Bit rate : 640 kb/s
Channel(s) : 6 channels
Channel layout : L R C LFE Ls Rs
Sampling rate : 48.0 kHz
Frame rate : 31.250 FPS (1536 SPF)
Compression mode : Lossy
Stream size : 242 MiB (10)
Language : Hebrew
Service kind : Complete Main
Default : Yes
Forced : No

Audio #2
ID : 3
Format : E-AC-3
Format/Info : Enhanced AC-3
Commercial name : Dolby Digital Plus
Codec ID : A_EAC3
Duration : 52 min 54 s
Bit rate mode : Constant
Bit rate : 640 kb/s
Channel(s) : 6 channels
Channel layout : L R C LFE Ls Rs
Sampling rate : 48.0 kHz
Frame rate : 31.250 FPS (1536 SPF)
Compression mode : Lossy
Stream size : 242 MiB (10)
Language : English
Service kind : Complete Main
Default : No
Forced : No

Text #1
ID : 4
Format : UTF-8
Codec ID : S_TEXT/UTF8
Codec ID/Info : UTF-8 Plain Text
Duration : 50 min 10 s
Bit rate : 86 b/s
Frame rate : 0.265 FPS
Count of elements : 797
Stream size : 31.6 KiB (0)
Language : Hebrew
Default : No
Forced : No

Text #2
ID : 5
Format : UTF-8
Codec ID : S_TEXT/UTF8
Codec ID/Info : UTF-8 Plain Text
Duration : 50 min 10 s
Bit rate : 108 b/s
Frame rate : 0.265 FPS
Count of elements : 797
Stream size : 39.7 KiB (0)
Title : SDH
Language : Hebrew
Default : No
Forced : No

Text #3
ID : 6
Format : UTF-8
Codec ID : S_TEXT/UTF8
Codec ID/Info : UTF-8 Plain Text
Duration : 50 min 58 s
Bit rate : 22 b/s
Frame rate : 0.083 FPS
Count of elements : 255
Stream size : 8.23 KiB (0)
Title : Forced
Language : English
Default : No
Forced : Yes

Text #4
ID : 7
Format : UTF-8
Codec ID : S_TEXT/UTF8
Codec ID/Info : UTF-8 Plain Text
Duration : 50 min 58 s
Bit rate : 55 b/s
Frame rate : 0.198 FPS
Count of elements : 606
Stream size : 20.8 KiB (0)
Language : English
Default : No
Forced : No

Text #5
ID : 8
Format : UTF-8
Codec ID : S_TEXT/UTF8
Codec ID/Info : UTF-8 Plain Text
Duration : 50 min 58 s
Bit rate : 67 b/s
Frame rate : 0.228 FPS
Count of elements : 698
Stream size : 25.0 KiB (0)
Title : SDH
Language : English
Default : No
Forced : No

Text #6
ID : 9
Format : UTF-8
Codec ID : S_TEXT/UTF8
Codec ID/Info : UTF-8 Plain Text
Duration : 50 min 58 s
Bit rate : 83 b/s
Frame rate : 0.198 FPS
Count of elements : 606
Stream size : 31.3 KiB (0)
Language : Arabic
Default : No
Forced : No

Text #7
ID : 10
Format : UTF-8
Codec ID : S_TEXT/UTF8
Codec ID/Info : UTF-8 Plain Text
Duration : 50 min 58 s
Bit rate : 53 b/s
Frame rate : 0.199 FPS
Count of elements : 608
Stream size : 20.1 KiB (0)
Language : Czech
Default : No
Forced : No

Text #8
ID : 11
Format : UTF-8
Codec ID : S_TEXT/UTF8
Codec ID/Info : UTF-8 Plain Text
Duration : 50 min 58 s
Bit rate : 54 b/s
Frame rate : 0.196 FPS
Count of elements : 600
Stream size : 20.4 KiB (0)
Language : Danish
Default : No
Forced : No

Text #9
ID : 12
Format : UTF-8
Codec ID : S_TEXT/UTF8
Codec ID/Info : UTF-8 Plain Text
Duration : 50 min 58 s
Bit rate : 53 b/s
Frame rate : 0.199 FPS
Count of elements : 608
Stream size : 20.1 KiB (0)
Language : German
Default : No
Forced : No

Text #10
ID : 13
Format : UTF-8
Codec ID : S_TEXT/UTF8
Codec ID/Info : UTF-8 Plain Text
Duration : 50 min 58 s
Bit rate : 90 b/s
Frame rate : 0.197 FPS
Count of elements : 604
Stream size : 33.8 KiB (0)
Language : Greek
Default : No
Forced : No

Text #11
ID : 14
Format : UTF-8
Codec ID : S_TEXT/UTF8
Codec ID/Info : UTF-8 Plain Text
Duration : 50 min 58 s
Bit rate : 54 b/s
Frame rate : 0.199 FPS
Count of elements : 609
Stream size : 20.2 KiB (0)
Title : Latin American
Language : Spanish (Latin America)
Default : No
Forced : No

Text #12
ID : 15
Format : UTF-8
Codec ID : S_TEXT/UTF8
Codec ID/Info : UTF-8 Plain Text
Duration : 50 min 58 s
Bit rate : 53 b/s
Frame rate : 0.197 FPS
Count of elements : 601
Stream size : 20.0 KiB (0)
Language : Spanish (ES)
Default : No
Forced : No

Text #13
ID : 16
Format : UTF-8
Codec ID : S_TEXT/UTF8
Codec ID/Info : UTF-8 Plain Text
Duration : 50 min 58 s
Bit rate : 53 b/s
Frame rate : 0.193 FPS
Count of elements : 589
Stream size : 20.1 KiB (0)
Language : Finnish
Default : No
Forced : No

Text #14
ID : 17
Format : UTF-8
Codec ID : S_TEXT/UTF8
Codec ID/Info : UTF-8 Plain Text
Duration : 50 min 58 s
Bit rate : 56 b/s
Frame rate : 0.198 FPS
Count of elements : 607
Stream size : 21.2 KiB (0)
Language : fil
Default : No
Forced : No

Text #15
ID : 18
Format : UTF-8
Codec ID : S_TEXT/UTF8
Codec ID/Info : UTF-8 Plain Text
Duration : 50 min 58 s
Bit rate : 59 b/s
Frame rate : 0.194 FPS
Count of elements : 594
Stream size : 22.3 KiB (0)
Language : French
Default : No
Forced : No

Text #16
ID : 19
Format : UTF-8
Codec ID : S_TEXT/UTF8
Codec ID/Info : UTF-8 Plain Text
Duration : 50 min 58 s
Bit rate : 50 b/s
Frame rate : 0.197 FPS
Count of elements : 604
Stream size : 19.0 KiB (0)
Language : Croatian
Default : No
Forced : No

Text #17
ID : 20
Format : UTF-8
Codec ID : S_TEXT/UTF8
Codec ID/Info : UTF-8 Plain Text
Duration : 50 min 58 s
Bit rate : 52 b/s
Frame rate : 0.194 FPS
Count of elements : 594
Stream size : 19.6 KiB (0)
Language : Hungarian
Default : No
Forced : No

Text #18
ID : 21
Format : UTF-8
Codec ID : S_TEXT/UTF8
Codec ID/Info : UTF-8 Plain Text
Duration : 50 min 58 s
Bit rate : 52 b/s
Frame rate : 0.198 FPS
Count of elements : 606
Stream size : 19.8 KiB (0)
Language : Indonesian
Default : No
Forced : No

Text #19
ID : 22
Format : UTF-8
Codec ID : S_TEXT/UTF8
Codec ID/Info : UTF-8 Plain Text
Duration : 50 min 58 s
Bit rate : 53 b/s
Frame rate : 0.193 FPS
Count of elements : 590
Stream size : 20.0 KiB (0)
Language : Italian
Default : No
Forced : No

Text #20
ID : 23
Format : UTF-8
Codec ID : S_TEXT/UTF8
Codec ID/Info : UTF-8 Plain Text
Duration : 51 min 7 s
Bit rate : 53 b/s
Frame rate : 0.208 FPS
Count of elements : 638
Stream size : 20.1 KiB (0)
Language : Japanese
Default : No
Forced : No

Text #21
ID : 24
Format : UTF-8
Codec ID : S_TEXT/UTF8
Codec ID/Info : UTF-8 Plain Text
Duration : 50 min 58 s
Bit rate : 70 b/s
Frame rate : 0.198 FPS
Count of elements : 607
Stream size : 26.4 KiB (0)
Language : Korean
Default : No
Forced : No

Text #22
ID : 25
Format : UTF-8
Codec ID : S_TEXT/UTF8
Codec ID/Info : UTF-8 Plain Text
Duration : 50 min 58 s
Bit rate : 54 b/s
Frame rate : 0.198 FPS
Count of elements : 606
Stream size : 20.5 KiB (0)
Language : Malay
Default : No
Forced : No

Text #23
ID : 26
Format : UTF-8
Codec ID : S_TEXT/UTF8
Codec ID/Info : UTF-8 Plain Text
Duration : 50 min 58 s
Bit rate : 50 b/s
Frame rate : 0.196 FPS
Count of elements : 598
Stream size : 18.8 KiB (0)
Language : Norwegian Bokmal
Default : No
Forced : No

Text #24
ID : 27
Format : UTF-8
Codec ID : S_TEXT/UTF8
Codec ID/Info : UTF-8 Plain Text
Duration : 50 min 58 s
Bit rate : 52 b/s
Frame rate : 0.174 FPS
Count of elements : 531
Stream size : 19.5 KiB (0)
Language : Dutch
Default : No
Forced : No

Text #25
ID : 28
Format : UTF-8
Codec ID : S_TEXT/UTF8
Codec ID/Info : UTF-8 Plain Text
Duration : 50 min 58 s
Bit rate : 52 b/s
Frame rate : 0.198 FPS
Count of elements : 606
Stream size : 19.5 KiB (0)
Language : Polish
Default : No
Forced : No

Text #26
ID : 29
Format : UTF-8
Codec ID : S_TEXT/UTF8
Codec ID/Info : UTF-8 Plain Text
Duration : 50 min 58 s
Bit rate : 53 b/s
Frame rate : 0.196 FPS
Count of elements : 600
Stream size : 19.8 KiB (0)
Title : Brazilian
Language : Portuguese (BR)
Default : No
Forced : No

Text #27
ID : 30
Format : UTF-8
Codec ID : S_TEXT/UTF8
Codec ID/Info : UTF-8 Plain Text
Duration : 50 min 58 s
Bit rate : 53 b/s
Frame rate : 0.198 FPS
Count of elements : 607
Stream size : 19.9 KiB (0)
Language : Portuguese (PT)
Default : No
Forced : No

Text #28
ID : 31
Format : UTF-8
Codec ID : S_TEXT/UTF8
Codec ID/Info : UTF-8 Plain Text
Duration : 50 min 58 s
Bit rate : 66 b/s
Frame rate : 0.199 FPS
Count of elements : 608
Stream size : 24.9 KiB (0)
Language : Romanian
Default : No
Forced : No

Text #29
ID : 32
Format : UTF-8
Codec ID : S_TEXT/UTF8
Codec ID/Info : UTF-8 Plain Text
Duration : 50 min 58 s
Bit rate : 80 b/s
Frame rate : 0.199 FPS
Count of elements : 610
Stream size : 30.1 KiB (0)
Language : Russian
Default : No
Forced : No

Text #30
ID : 33
Format : UTF-8
Codec ID : S_TEXT/UTF8
Codec ID/Info : UTF-8 Plain Text
Duration : 50 min 58 s
Bit rate : 54 b/s
Frame rate : 0.197 FPS
Count of elements : 603
Stream size : 20.4 KiB (0)
Language : Swedish
Default : No
Forced : No

Text #31
ID : 34
Format : UTF-8
Codec ID : S_TEXT/UTF8
Codec ID/Info : UTF-8 Plain Text
Duration : 50 min 58 s
Bit rate : 132 b/s
Frame rate : 0.199 FPS
Count of elements : 609
Stream size : 49.3 KiB (0)
Language : Thai
Default : No
Forced : No

Text #32
ID : 35
Format : UTF-8
Codec ID : S_TEXT/UTF8
Codec ID/Info : UTF-8 Plain Text
Duration : 50 min 58 s
Bit rate : 55 b/s
Frame rate : 0.196 FPS
Count of elements : 598
Stream size : 20.8 KiB (0)
Language : Turkish
Default : No
Forced : No

Text #33
ID : 36
Format : UTF-8
Codec ID : S_TEXT/UTF8
Codec ID/Info : UTF-8 Plain Text
Duration : 50 min 58 s
Bit rate : 87 b/s
Frame rate : 0.198 FPS
Count of elements : 605
Stream size : 32.8 KiB (0)
Language : Ukrainian
Default : No
Forced : No

Text #34
ID : 37
Format : UTF-8
Codec ID : S_TEXT/UTF8
Codec ID/Info : UTF-8 Plain Text
Duration : 50 min 58 s
Bit rate : 79 b/s
Frame rate : 0.199 FPS
Count of elements : 609
Stream size : 29.9 KiB (0)
Language : Vietnamese
Default : No
Forced : No

Text #35
ID : 38
Format : UTF-8
Codec ID : S_TEXT/UTF8
Codec ID/Info : UTF-8 Plain Text
Duration : 50 min 58 s
Bit rate : 61 b/s
Frame rate : 0.198 FPS
Count of elements : 606
Stream size : 23.1 KiB (0)
Title : Simplified
Language : Chinese (Simplied)
Default : No
Forced : No

Text #36
ID : 39
Format : UTF-8
Codec ID : S_TEXT/UTF8
Codec ID/Info : UTF-8 Plain Text
Duration : 51 min 1 s
Bit rate : 63 b/s
Frame rate : 0.198 FPS
Count of elements : 606
Stream size : 23.7 KiB (0)
Title : Traditional
Language : Chinese (Traditional)
Default : No
Forced : No

Menu
00:06:17.040 : enpening Credits
00:06:42.840 : en:Chapter 01
00:50:22.000 : en:End Credits
Kategoria:TV / Seriale
Ocena: N/A
Rozmiar:21.71 GiB
Dodane:25/01/2023 04:08:05
Uploader:Ishimura
Statystyki:Seedów: 53   Leecherów: 42
Ostatnie Uaktualnienie26/01/2023 19:52:50



Brak komentarzy...


Wstecz

Copyright © 2009-2018 vTorrent.pl
Wszelkie uwagi odnośnie funkcjonowania strony prosimy kierować przez formularz kontaktowy

[ Script Execution time: 0.0766 sec. ] - [ GZIP: disabled ]