Witamy Guest (Zaloguj) Zarejestruj się Przypomnij hasło Torrenty Kontakt Napisy PL
Torrent Kategorie
 » WSZYSTKIE TORRENTY
FILMY :
 » RMVB9394  
 » (S)VCD564  
 » Divx / Xvid45100  
 » DVD-R2832  
 » x264 / HDTV4993  
 » 4K0  
 » 3D24  
 » TV / Seriale30015  
 » Anime1240  
GRY :
 » Gry PC10975  
 » Gry Konsole4030  
 » Poradniki, spolszczenia i inne1  
PROGRAMY :
 » Windows10712  
 » Linux / Mac806  
MUZYKA :
 » Albumy i składanki48728  
 » Koncerty59  
DOKUMENTY :
 » Książki3946  
 » Audiobooki1619  
 » Czasopisma1597  
 » Komiksy1087  
POZOSTAŁE :
 » Dla Dzieci2669  
 » Sport2244  
 » GSM / PDA1875  
 » Tapety2477  
 » Różne14  
EROTYKA :
 » Filmy XXX20624  
 » Zdjęcia XXX7  
 » Czasopisma XXX539  
 » Gry XXX89  
 » Hentai92  

Detale Torrenta
Nazwa plikuPięćdziesiąt twarzy Greya *2015* [UNRATED 480p.][BRRiP.XViD.AC3-K12] Lektor PL
Torrent:Pięćdziesiąt twarzy Greya *2015* [UNRATED 480p.][BRRiP.XViD.AC3-K12] Lektor PL.torrent
Info Hash:5c49d1e71655ececfaf9ab959c8dfcd275a65703
Opis:

Info:-

reżyseria: Sam Taylor-Johnson
scenariusz: Kelly Marcel
gatunek: Melodramat
produkcja: USA
premiera: 13 lutego 2015 (Polska) 9 lutego 2015 (świat)

http://www.filmweb.pl/film/Pięćdziesiąt+twarzy+Greya-2015-655761

Opis:-

Młoda, niewinna studentka literatury Anastasia Steele jedzie w zastępstwie koleżanki przeprowadzić wywiad dla gazety studenckiej z rekinem biznesu, przystojnym i zamożnym Christianem Greyem. Mężczyzna od pierwszych sekund spotkania fascynuje ją i onieśmiela. W powietrzu wisi coś elektryzującego, czego dziewczyna nie potrafi nazwać, a może tylko się jej wydaje? Z prawdziwą ulgą kończy rozmowę i postanawia zapomnieć o intrygującym przystojniaku.

Plan spala jednak na panewce, bo Christian Grey zjawia się nazajutrz w sklepie, w którym Anastasia dorywczo pracuje. Przypadek? I do tego proponuje kolejne spotkanie.

W tym miejscu kończy się „disneyowskie” love story, choć młodziutka, niedoświadczona dziewczyna nie wie jeszcze, że Christian opętany jest potrzebą sprawowania nad wszystkim kontroli i że pragnie jej na własnych, dość niezwykłych warunkach… Czy dziewczyna podpisze tajemniczą umowę, której warunki napawają ją strachem i fascynacją? Jaki sekret skrywa przeszłość Christiana i jak wielką władzę mają drzemiące w nim demony?.

Obsada:-

Dakota Johnson Anastasia Steele
Jamie Dornan Christian Grey
Jennifer Ehle Carla May Wilks
Eloise Mumford Kate Kavanagh
Victor Rasuk José Rodriguez
Luke Grimes Elliot Grey
Marcia Gay Harden Dr Grace Trevelyan Grey
Rita Ora Mia Grey

Dane Tech:-

Pięćdziesiąt twarzy Greya 2015 Lektor PL UNRATED 480p.BRRiP.XViD.AC3-K12.avi
Format : AVI
Format/Info : Audio Video Interleave
File size : 1.98 GiB
Duration : 2h 8mn
Overall bit rate : 2 203 Kbps
Writing library : VirtualDub build 35475/release

Video
ID : 0
Format : MPEG-4 Visual
Format profile : Advanced Simple@L5
Format settings, BVOP : 2
Format settings, QPel : No
Format settings, GMC : No warppoints
Format settings, Matrix : Default (H.263)
Muxing mode : Packed bitstream
Codec ID : XVID
Codec ID/Hint : XviD
Duration : 2h 8mn
Bit rate : 1 809 Kbps
Width : 720 pixels
Height : 304 pixels
Display aspect ratio : 2.35:1
Frame rate : 23.976 fps
Color space : YUV
Chroma subsampling : 4:2:0
Bit depth : 8 bits
Scan type : Progressive
Compression mode : Lossy
Bits/(Pixel*Frame) : 0.345
Stream size : 1.62 GiB (82%)
Writing library : XviD 65

Audio
ID : 1
Format : AC-3
Format/Info : Audio Coding 3
Mode extension : CM (complete main)
Format settings, Endianness : Big
Codec ID : 2000
Duration : 2h 8mn
Bit rate mode : Constant
Bit rate : 384 Kbps
Channel(s) : 6 channels
Channel positions : Front: L C R, Side: L R, LFE
Sampling rate : 48.0 KHz
Bit depth : 16 bits
Compression mode : Lossy
Stream size : 353 MiB (17%)
Alignment : Aligned on interleaves
Interleave, duration : 42 ms (1.00 video frame)
Interleave, preload duration : 512 ms
Kategoria:(S)VCD
Ocena: N/A
Rozmiar:1.98 GiB
Dodane:28/05/2015 17:20:27
Uploader:Pietraś
Statystyki:Seedów: -/-    Leecherów: -/-
Ostatnie Uaktualnienie17/05/2018 12:59:22


Brak komentarzy...


Wstecz

Copyright © 2009-2018 vTorrent.pl
Wszelkie uwagi odnośnie funkcjonowania strony prosimy kierować przez formularz kontaktowy

[ Script Execution time: 0.0180 sec. ] - [ GZIP: disabled ]