Witamy Guest (Zaloguj) Zarejestruj się Przypomnij hasło Torrenty Kontakt Napisy PL
Torrent Kategorie
 » WSZYSTKIE TORRENTY
FILMY :
 » RMVB9395  
 » (S)VCD564  
 » Divx / Xvid45536  
 » DVD-R2834  
 » x264 / HDTV5133  
 » 4K0  
 » 3D31  
 » TV / Seriale30281  
 » Anime1240  
GRY :
 » Gry PC11143  
 » Gry Konsole4035  
 » Poradniki, spolszczenia i inne1  
PROGRAMY :
 » Windows10746  
 » Linux / Mac806  
MUZYKA :
 » Albumy i składanki48954  
 » Koncerty69  
DOKUMENTY :
 » Książki4001  
 » Audiobooki1729  
 » Czasopisma1597  
 » Komiksy1094  
POZOSTAŁE :
 » Dla Dzieci2673  
 » Sport2251  
 » GSM / PDA1875  
 » Tapety2477  
 » Różne14  
EROTYKA :
 » Filmy XXX20626  
 » Zdjęcia XXX7  
 » Czasopisma XXX539  
 » Gry XXX90  
 » Hentai93  

Detale Torrenta
Nazwa plikuScorpions–Live In 3D (Get Your Sting & Blackout)(2011)[BRRip 1080p x264 AC3/DTS/PCM][Eng]
Torrent:Scorpions–Live In 3D (Get Your Sting & Blackout)(2011)[BRRip 1080p x264 AC3/DTS/PCM][Eng].torrent
Info Hash:804573c82bf67de6bbdd10e31277b76baaca992f
Opis:



Film w wersji 3D Half Over/Under.
Audio DTS & PCM w osobnym pliku.
Plik zawiera Sample.

produkcja: Germany
data: 2011
wydawca: Sony Music
reżyseria: Gerd F.Schulze
producent: Gerd F.Schulze
gatunek: Rock
czas: 1:53:59 + 33:39

opis:

Get Your Sting and Blackout World Tour is a worldwide concert tour by German rock band Scorpions.
It follows the release of the album Sting in the Tail.
The European dates were followed by dates in North America, South America, Asia, and Africa. Shortly
before the tour began, members of the Scorpions announced that this would be their last world tour
before retirement. However, they have retracted this decision.

German hard rock veterans SCORPIONS will release "Get Your Sting & Blackout - Live In 3D" on Blu-ray
on December 6 via Sony. The disc contains a recording of the band's April 15, 2011 concert in Saarbrucken,
Germany using the latest 3D technology, 11 cameras, awesome 5.1.

"Get Your Sting i Blackout World Tour" to światowa trasa koncertowa niemieckiego zespołu Scorpions
po wydaniu albumu "Sting in the Tail".
Po europejskich koncertach występowali w Ameryce Północnej, Ameryce Południowej, Azji i Afryce. Krótko
przed rozpoczęciem turnee członkowie Scorpions ogłosili, że będzie to ich ostatnia podróż po świecie
przed przejściem na emeryturę, jednak się z tego wycofali.

https://i.imgur.com/grD8C3W.jpg
https://i.imgur.com/8lVMmqf.jpg
https://i.imgur.com/U8yt9Qa.jpg
https://i.imgur.com/9NSuxnA.jpg

tracklist:

Intro 1:48
Sting In The Tail 3:27
Make It Real 3:37
Bad Boys Running Wild 3:51
The Zoo 5:50
Coast To Coast 5:12
Loving You Sunday Morning 4:03
The Best Is Yet To Come 5:48
Send Me An Angel 3:50
Holiday 6:22
Raised On Rock 4:03
Tease Me, Please Me 5:23
Dynamite 4:00
Kottak Attack 6:49
Blackout 3:52
Six String Sting 3:00
Big City Nights 7:04
Still Loving You 6:02
Wind Of Change 5:05
Rock You Like A Hurricane 6:47
When The Smoke Is Going Down 3:00

bonus:

Behind The Scenes 33:39

dane techniczne:

audio:

Scorpions?–Live In 3D (Get Your Sting & Blackout)(2011)-alE13_audio.mka

Hash: 8AFC939AD656F736
Format: Matroska
Czas: 01:53:59.862
Rozmiar: 5.94 GiB (6375990014)

Audio (0):
Kodek: (DTS-HD) DTS-HD
Format: DTS
Kanały: 6 channels
BitRate: 5 149 kb/s / 1 509 kb/s
Tytuł: Scorpions?–Live In 3D (Get Your Sting & Blackout)(2011)-alE13_DTS
Język: English

Audio (1):
Kodek: (PCM) PCM
Format: PCM
Kanały: 2 channels
BitRate: 2 304 kb/s
Tytuł: Scorpions?–Live In 3D (Get Your Sting & Blackout)(2011)-alE13_PCM
Język: English


Napisy (0):
Kodek: (S_HDMV/PGS) PGS
Format: PGS
Język: English (Scorpions?–Live In 3D (Get Your Sting & Blackout)(2011)-alE13)

video:

Scorpions?–Live In 3D (Get Your Sting & Blackout)(2011)-alE13.mkv
Format : Matroska
Format version : Version 4 / Version 2
File size : 7.87 GiB
Duration : 1 h 53 min
Overall bit rate : 9 890 kb/s
Movie name : Scorpions?–Live In 3D (Get Your Sting & Blackout)(2011)-alE13
Encoded date : UTC 2017-10-23 07:18:46
Writing application : mkvmerge v8.1.0 ('Psychedelic Postcard&#039 64bit
Writing library : libebml v1.3.1 + libmatroska v1.4.2
Cover : Yes
Attachments : Cover.jpg

Video
ID : 1
Format : AVC
Format/Info : Advanced Video Codec
Format profile : High@L4.1
Format settings, CABAC : Yes
Format settings, RefFrames : 2 frames
Format settings, GOP : M=2, N=24
Codec ID : V_MPEG4/ISO/AVC
Duration : 1 h 53 min
Bit rate : 9 248 kb/s
Width : 1 920 pixels
Height : 1 080 pixels
Display aspect ratio : 16:9
Frame rate mode : Constant
Frame rate : 23.976 (24000/1001) FPS
Color space : YUV
Chroma subsampling : 4:2:0
Bit depth : 8 bits
Scan type : Progressive
Bits/(Pixel*Frame) : 0.186
Stream size : 7.36 GiB (94%)
Title : Scorpions?–Live In 3D (Get Your Sting & Blackout)(2011)-alE13
Writing library : x264 core 142
Default : Yes
Forced : No
Color range : Limited
Color primaries : BT.709
Transfer characteristics : BT.709
Matrix coefficients : BT.709

Audio
ID : 2
Format : AC-3
Format/Info : Audio Coding 3
Format settings, Endianness : Big
Codec ID : A_AC3
Duration : 1 h 53 min
Bit rate mode : Constant
Bit rate : 640 kb/s
Channel(s) : 6 channels
Channel positions : Front: L C R, Side: L R, LFE
Sampling rate : 48.0 kHz
Frame rate : 31.250 FPS (1536 SPF)
Bit depth : 16 bits
Compression mode : Lossy
Stream size : 522 MiB (6%)
Title : Scorpions?–Live In 3D (Get Your Sting & Blackout)(2011)-alE13
Language : English
Service kind : Complete Main
Default : Yes
Forced : No

Menu
00:00:00.000 : en01)00:00:00:000
00:01:48.525 : en02)00:01:48:525
00:05:15.898 : en03)00:05:15:898
00:09:12.969 : en04)00:09:12:969
00:13:09.205 : en05)00:13:09:205
00:18:59.138 : en06)00:18:59:138
00:24:12.868 : en07)00:24:12:868
00:29:00.739 : en08)00:29:00:739
00:36:53.628 : en09)00:36:53:628
00:41:19.477 : en10)00:41:19:477
00:48:10.888 : en11)00:48:10:888
00:52:19.553 : en12)00:52:19:553
00:57:50.884 : en13)00:57:50:884
01:01:42.699 : en14)01:01:42:699
01:08:45.121 : en15)01:08:45:121
01:12:55.371 : en16)01:12:55:371
01:15:53.549 : en17)01:15:53:549
01:25:45.348 : en18)01:25:45:348
01:32:24.956 : en19)01:32:24:956
01:37:50.865 : en20)01:37:50:865
01:46:32.594 : en21)01:46:32:594
01:51:12.957 : en22)01:51:12:957
01:53:59.249 : en23)01:53:59:249
Kategoria:Koncerty
Ocena: N/A
Rozmiar:15.87 GiB
Dodane:25/10/2017 14:23:06
Uploader:Ishimura
Statystyki:Seedów: 1   Leecherów: 2
Ostatnie Uaktualnienie08/04/2018 21:05:42


Brak komentarzy...


Wstecz

Copyright © 2009-2018 vTorrent.pl
Wszelkie uwagi odnośnie funkcjonowania strony prosimy kierować przez formularz kontaktowy

[ Script Execution time: 0.0280 sec. ] - [ GZIP: disabled ]