Witamy Guest (Zaloguj) Zarejestruj się Przypomnij hasło Torrenty Kontakt Napisy PL
Torrent Kategorie
 » WSZYSTKIE TORRENTY
FILMY :
 » RMVB9394  
 » (S)VCD564  
 » Divx / Xvid45066  
 » DVD-R2832  
 » x264 / HDTV4964  
 » 4K0  
 » 3D24  
 » TV / Seriale29971  
 » Anime1240  
GRY :
 » Gry PC10973  
 » Gry Konsole4030  
 » Poradniki, spolszczenia i inne1  
PROGRAMY :
 » Windows10712  
 » Linux / Mac806  
MUZYKA :
 » Albumy i składanki48717  
 » Koncerty58  
DOKUMENTY :
 » Książki3946  
 » Audiobooki1606  
 » Czasopisma1597  
 » Komiksy1084  
POZOSTAŁE :
 » Dla Dzieci2669  
 » Sport2244  
 » GSM / PDA1875  
 » Tapety2477  
 » Różne14  
EROTYKA :
 » Filmy XXX20624  
 » Zdjęcia XXX7  
 » Czasopisma XXX539  
 » Gry XXX89  
 » Hentai92  

Detale Torrenta
Nazwa plikuWkręceni 2 *2014*[rmvb] Film Polski
Torrent:Wkręceni 2 *2014*[rmvb] Film Polski.torrent
Info Hash:b77a88874d8a0e8e67ea57cd29ae418526143cd8
Opis:

Info:-

reżyseria: Piotr Wereśniak
scenariusz: Piotr Wereśniak
gatunek: Komedia
produkcja: Polska
premiera: 16 stycznia 2015 (Polska) 16 stycznia 2015 (świat)


Opis:-

Szyja poznaje seksowną Klementynę, która zabiera go do Warszawy i wprowadza w świat show-biznesu. Jego zazdrosna żona Jadźka chce za wszelką cenę odzyskać męża, chociażby siłą.

Obsada:-

Paweł Domagała -Tomek "Szyja" Zarówny / Miki Mazur
Małgorzata Socha -Klementyna
Bartosz Opania -Zenobiusz "Fikoł" Kozioł
Marta Żmuda Trzebiatowska -Dolores Medeiros
Barbara Kurdej-Szatan -Jadźka
Antoni Królikowski -"Stopklatka"
Filip Bobek -Leo Brant
Leszek Lichota -"Lufa"

Dane Tech:-

Wkręceni 2 2014(Polski film).rmvb
Format : RealMedia
File size : 289 MiB
Duration : 1h 31mn
Overall bit rate : 430 Kbps

Video
ID : 0
Format : RealVideo 4
Codec ID : RV40
Codec ID/Info : Based on AVC (H.264), Real Player 9
Duration : 1h 31mn
Bit rate : 334 Kbps
Width : 640 pixels
Height : 352 pixels
Display aspect ratio : 16:9
Frame rate : 25.000 fps
Bits/(Pixel*Frame) : 0.059
Stream size : 219 MiB (76%)

Audio
ID : 1
Format : Cooker
Codec ID : cook
Codec ID/Info : Based on G.722.1, Real Player 6
Duration : 1h 31mn
Bit rate : 96.5 Kbps
Channel(s) : 2 channels
Sampling rate : 44.1 KHz
Bit depth : 16 bits
Stream size : 63.1 MiB (22%)
Kategoria:(S)VCD
Ocena: N/A
Rozmiar:289.22 MiB
Dodane:13/05/2015 20:03:21
Uploader:Pietraś
Statystyki:Seedów: -/-    Leecherów: -/-
Ostatnie Uaktualnienie26/05/2018 22:07:48


Brak komentarzy...


Wstecz

Copyright © 2009-2018 vTorrent.pl
Wszelkie uwagi odnośnie funkcjonowania strony prosimy kierować przez formularz kontaktowy

[ Script Execution time: 0.0118 sec. ] - [ GZIP: disabled ]