Witamy Guest (Zaloguj) Zarejestruj się Przypomnij hasło Torrenty Kontakt Napisy PL
Torrent Kategorie
 » WSZYSTKIE TORRENTY
FILMY :
 » RMVB9394  
 » (S)VCD564  
 » Divx / Xvid45092  
 » DVD-R2832  
 » x264 / HDTV4986  
 » 4K0  
 » 3D24  
 » TV / Seriale30012  
 » Anime1240  
GRY :
 » Gry PC10974  
 » Gry Konsole4030  
 » Poradniki, spolszczenia i inne1  
PROGRAMY :
 » Windows10712  
 » Linux / Mac806  
MUZYKA :
 » Albumy i składanki48728  
 » Koncerty59  
DOKUMENTY :
 » Książki3946  
 » Audiobooki1619  
 » Czasopisma1597  
 » Komiksy1087  
POZOSTAŁE :
 » Dla Dzieci2669  
 » Sport2244  
 » GSM / PDA1875  
 » Tapety2477  
 » Różne14  
EROTYKA :
 » Filmy XXX20624  
 » Zdjęcia XXX7  
 » Czasopisma XXX539  
 » Gry XXX89  
 » Hentai92  

Detale Torrenta
Nazwa plikuPrawie jak gladiator - Gladiatori di Roma *2012* [DVDRiP XViD] [MD Dubbing PL] [AT-TEAM]
Torrent:Prawie jak gladiator - Gladiatori di Roma *2012* [DVDRiP XViD] [MD Dubbing PL] [AT-TEAM].torrent
Info Hash:eb61f6c2ab0ee1a2aeb77c70a8e5c995fb465c99
Opis:

gatunek: Animacja, Komedia, Przygodowy
produkcja: Włochy
premiera: 11 stycznia 2013 (Polska) 18 października 2012 (świat)
reżyseria: Iginio Straffi
scenariusz: Michael J. Wilson

Filmweb: 5.2
http://www.filmweb.pl/film/Prawie+jak+gladiator-2012-626720

IMDB: 3.5
http://www.imdb.com/title/tt1946347/

Opis:

Pozbawiony gladiatorskich ambicji Tino postanowi stanąć do walki z największym wymiataczem w tym fachu.
A wszystko za sprawą pięknej dziewczyny.

Obsada:

Magdalena Cielecka Diana (polski dubbing)
Rafał Cieszyński Tymon (polski dubbing)
Marian Dziędziel Katon (polski dubbing)
Monika Pikuła Lucylla (polski dubbing)
Michał Piela (polski dubbing)
Waldemar Barwiński (polski dubbing)
Jolanta Wołłejko (polski dubbing)
Michał Pol (polski dubbing)

Trailer:

http://www.youtube.com/watch?v=w9CWMeb6TJE

Screen's:

http://img827.imageshack.us/img827/166/vlcsnap2013020813h54m26.png
http://img827.imageshack.us/img827/3538/vlcsnap2013020813h55m15.png
http://img46.imageshack.us/img46/5281/vlcsnap2013020813h55m41.png
http://img543.imageshack.us/img543/7192/vlcsnap2013020813h57m45.png

Info:

Source: (V) DVD (A) MD Kino

Plik zawiera sample/Sample in file

Format : Matroska
Format version : Version 4 / Version 2
File size : 1.20 GiB
Duration : 1h 30mn
Overall bit rate : 1 904 Kbps
Movie name : prawie.jak.gladiator.2012.pl.dub.md.dvdrip.x264-AT-TEAM
Encoded date : UTC 2010-02-22 21:41:31
Writing application : mkvmerge v5.9.0 ('On The Loose&#039 built on Dec 9 2012 15:37:01
Writing library : libebml v1.3.0 + libmatroska v1.4.0

Video:

ID : 1
Format : MPEG-4 Visual
Format profile : Advanced Simple@L5
Format settings, BVOP : Yes
Format settings, QPel : No
Format settings, GMC : No warppoints
Format settings, Matrix : Default (MPEG)
Codec ID : V_MS/VFW/FOURCC / XVID
Codec ID/Hint : XviD
Duration : 1h 30mn
Bit rate : 1 674 Kbps
Width : 656 pixels
Height : 272 pixels
Display aspect ratio : 2.40:1
Frame rate mode : Constant
Frame rate : 25.000 fps
Color space : YUV
Chroma subsampling : 4:2:0
Bit depth : 8 bits
Scan type : Progressive
Compression mode : Lossy
Bits/(Pixel*Frame) : 0.375
Stream size : 1.06 GiB (88%)
Writing library : XviD 1.2.1 (UTC 2008-12-04)
Default : Yes
Forced : No

Audio:

ID : 2
Format : AC-3
Format/Info : Audio Coding 3
Mode extension : CM (complete main)
Format settings, Endianness : Big
Muxing mode : Header stripping
Codec ID : A_AC3
Duration : 1h 30mn
Bit rate mode : Constant
Bit rate : 192 Kbps
Channel(s) : 2 channels
Channel positions : Front: L R
Sampling rate : 48.0 KHz
Bit depth : 16 bits
Compression mode : Lossy
Stream size : 124 MiB (10%)
Title : MD PL
Language : Polish
Default : Yes
Forced : No
Kategoria:Dla Dzieci
Ocena: N/A
Rozmiar:1.20 GiB
Dodane:08/02/2013 13:19:10
Uploader:Przemqu
Statystyki:Seedów: 0   Leecherów: 0
Ostatnie Uaktualnienie28/04/2018 13:33:24


Brak komentarzy...


Wstecz

Copyright © 2009-2018 vTorrent.pl
Wszelkie uwagi odnośnie funkcjonowania strony prosimy kierować przez formularz kontaktowy

[ Script Execution time: 0.0139 sec. ] - [ GZIP: disabled ]